<?xml version="1.0" standalone="no"?>
<!DOCTYPE svg PUBLIC "-//W3C//DTD SVG 1.1//EN" "http://www.w3.org/Graphics/SVG/1.1/DTD/svg11.dtd">
<svg xmlns="http://www.w3.org/2000/svg">
<defs >
<font id="Almarai" horiz-adv-x="639" ><font-face
    font-family="Almarai Bold"
    units-per-em="1000"
    panose-1="0 0 0 0 0 0 0 0 0 0"
    ascent="905"
    descent="-211"
    alphabetic="0" />
<glyph unicode=" " glyph-name="space" horiz-adv-x="184" />
<glyph unicode="!" glyph-name="exclam" horiz-adv-x="267" d="M185 716V216L130 172H76V716H185ZM133 124Q160 124 179 106T198 60Q198 33 179 14T133 -5Q107 -5 88 14T69 60Q69 87 87 105T133 124Z" />
<glyph unicode="&quot;" glyph-name="quotedbl" horiz-adv-x="401" d="M171 716V530L119 488H69V716H171ZM332 716V530L280 488H230V716H332Z" />
<glyph unicode="#" glyph-name="numbersign" horiz-adv-x="609" d="M509 672L472 479H588V394H456L432 276H556V191H417L380 0H287L323 191H227L191 0H99L134 191H20V276H150L174 394H53V479H189L225 672H319L282 479H381L418 672H509ZM364 394H266L242 276H340L364 394Z" />
<glyph unicode="$" glyph-name="dollar" horiz-adv-x="615" d="M340 716V642Q410 633 464 604V510Q394 538 340 543V388Q442 352 480 315Q523 275 523 209Q523 139 476 97Q428 53 340 43V-55H277V41Q202 42 142 62L92 124V166Q182 136 268 136Q274 136 277 136V300Q176
336 138 376Q98 416 98 481Q98 548 146 590Q195 633 277 640V716H340ZM277 413V541Q248 538 231 523Q217 507 217 483Q217 460 228 446Q240 427 277 413ZM340 275V141Q369 145 385 160Q404 176 404 207Q404 231 389 247Q377 261 340 275Z" />
<glyph unicode="%" glyph-name="percent" horiz-adv-x="801" d="M179 690Q255 690 299 630Q341 571 341 476Q341 381 299 326Q257 272 180 272Q99 272 58 329Q18 383 18 475Q18 570 58 627Q99 690 179 690ZM646 673L250 0H152L549 673H646ZM179 626Q139 626 120
584Q102 544 102 475Q102 415 117 380Q135 336 179 336Q222 336 242 380Q257 417 257 475Q257 543 238 584Q217 626 179 626ZM620 400Q697 400 740 340Q783 279 783 186Q783 92 740 36Q698 -18 621 -18Q540 -18 499 39Q459 93 459 186Q459 280 499 338Q542 400
620 400ZM620 336Q580 336 562 294Q543 255 543 186Q543 129 558 90Q576 46 620 46Q664 46 683 91Q698 126 698 186Q698 253 679 294Q660 336 620 336Z" />
<glyph unicode="&amp;" glyph-name="ampersand" horiz-adv-x="709" d="M516 377H628Q628 370 628 367Q628 247 560 162L691 0H532L478 67Q418 21 378 5T286 -12Q175 -12 110 54Q54 112 54 200Q54 270 88 315T208 405Q157 464 142 492T127 556Q127 632 187 680Q240
721 313 721Q397 721 446 674Q488 633 488 570Q488 516 464 479T373 396L487 254Q517 310 517 364Q517 369 516 377ZM273 325L227 295Q184 262 184 217Q184 173 216 138T290 103Q336 103 407 156L273 325ZM311 473Q370 506 370 558Q370 615 313 615Q257 615 257
567Q257 540 300 487L311 473Z" />
<glyph unicode="&apos;" glyph-name="quotesingle" horiz-adv-x="240" d="M171 716V530L119 488H69V716H171Z" />
<glyph unicode="(" glyph-name="parenleft" horiz-adv-x="336" d="M248 716L290 682Q235 600 206 495Q181 400 181 302Q181 191 214 87Q238 12 290 -73L248 -106H213Q142 -25 108 82Q74 184 74 301Q74 420 108 523Q142 632 213 716H248Z" />
<glyph unicode=")" glyph-name="parenright" horiz-adv-x="336" d="M88 716H124Q192 635 229 523Q262 418 262 301Q262 186 229 82Q192 -28 124 -106H88L46 -73Q96 6 122 87Q155 191 155 302Q155 405 130 495Q101 600 46 682L88 716Z" />
<glyph unicode="*" glyph-name="asterisk" horiz-adv-x="382" d="M129 534L23 569L44 637L151 602V716H221V602L328 637L350 569L243 534L309 442L252 399L186 492L120 400L63 442L129 534Z" />
<glyph unicode="+" glyph-name="plus" horiz-adv-x="526" d="M218 21V191H46V282H218V455H308V282H480V191H308V21H218Z" />
<glyph unicode="," glyph-name="comma" horiz-adv-x="272" d="M124 7Q96 11 82 30Q69 45 69 70Q69 91 79 107Q97 135 132 135Q162 135 182 112T202 55Q202 -27 131 -104H100L76 -85Q99 -52 109 -30Q120 -10 124 7Z" />
<glyph unicode="-" glyph-name="hyphen" horiz-adv-x="321" d="M284 294V191H37V294H284Z" />
<glyph unicode="." glyph-name="period" horiz-adv-x="267" d="M133 124Q160 124 179 106T198 60Q198 33 179 14T133 -5Q107 -5 88 14T69 60Q69 87 87 105T133 124Z" />
<glyph unicode="/" glyph-name="slash" horiz-adv-x="381" d="M372 673L121 0H9L260 673H372Z" />
<glyph unicode="0" glyph-name="zero" horiz-adv-x="553" d="M276 732Q391 731 454 624Q516 518 516 352Q516 184 454 86Q393 -11 277 -11Q157 -11 96 91Q37 191 37 351Q37 515 96 621Q158 732 276 732ZM394 350Q394 457 372 529Q342 628 276 629Q217 629 188
550Q159 470 159 351Q159 244 182 175Q209 93 276 93Q394 93 394 350Z" />
<glyph unicode="1" glyph-name="one" horiz-adv-x="397" d="M328 716V54L266 0H206V577L90 479L32 552L226 716H328Z" />
<glyph unicode="2" glyph-name="two" horiz-adv-x="493" d="M62 662Q157 724 254 724Q351 724 402 667Q447 618 447 536Q447 475 418 416T317 269Q236 171 227 162L168 102H461V62L411 0H32V102L106 178L178 260Q261 352 285 387Q336 460 336 516Q336 560 308
587T233 615Q179 615 123 576L62 662Z" />
<glyph unicode="3" glyph-name="three" horiz-adv-x="499" d="M86 700Q162 724 211 724Q316 724 378 669Q438 616 438 528Q438 399 314 365Q387 350 426 303Q467 253 467 191Q467 88 381 32Q315 -11 222 -11Q157 -11 94 5L55 53V99Q125 86 175 86Q345 86 345 190Q345
244 298 281Q268 304 235 312T131 322V415H232Q270 415 295 441T320 508Q320 559 286 587T191 616Q153 616 86 599V700Z" />
<glyph unicode="4" glyph-name="four" horiz-adv-x="536" d="M423 716V272H513V168H423V55L362 0H304V168H23V256L306 716H423ZM304 556L136 272H304V556Z" />
<glyph unicode="5" glyph-name="five" horiz-adv-x="449" d="M359 716V614H139L129 435Q162 440 183 440Q297 440 359 368Q412 306 412 205Q412 97 331 39Q266 -7 167 -7Q102 -7 39 9L0 56V103Q69 89 120 89Q209 89 246 113Q290 141 290 211Q290 282 253 313T132
344Q97 344 22 336Q12 335 5 334L26 716H359Z" />
<glyph unicode="6" glyph-name="six" horiz-adv-x="537" d="M155 372Q218 455 302 455Q403 455 457 382Q502 323 502 233Q502 117 439 51Q381 -10 282 -10Q156 -10 95 89Q50 163 50 277V305Q50 489 120 601Q197 722 344 722Q368 722 404 716L447 664V617Q442 618
429 620Q381 629 356 629Q294 629 245 592T176 490Q161 443 155 372ZM380 231Q380 289 352 324T276 359Q233 359 200 324T167 241Q167 172 196 132T278 92Q323 92 351 131T380 231Z" />
<glyph unicode="7" glyph-name="seven" horiz-adv-x="514" d="M484 716V630L257 54L191 0H105L352 608H30V716H484Z" />
<glyph unicode="8" glyph-name="eight" horiz-adv-x="547" d="M196 369Q71 444 71 557Q71 649 140 694Q193 729 276 729Q368 729 424 680Q478 633 478 556Q478 449 352 370Q427 333 460 297Q506 246 506 175Q506 98 450 47Q384 -13 273 -13Q170 -13 105 40Q42
91 42 177Q42 288 196 369ZM278 417Q356 470 356 558Q356 642 275 642Q238 641 216 620Q193 596 193 556Q193 517 213 482Q233 446 278 417ZM275 326Q214 294 190 263T165 186Q165 85 275 85Q387 85 387 185Q387 268 275 326Z" />
<glyph unicode="9" glyph-name="nine" horiz-adv-x="525" d="M377 334Q353 304 326 287Q286 262 233 262Q133 262 80 335Q37 394 37 484Q37 600 99 665Q156 725 255 725Q484 725 484 390Q484 266 463 191T391 65Q320 -7 205 -7Q178 -7 134 1L95 49V96Q133 88 171
88Q283 88 327 141T377 334ZM362 479Q362 622 261 622Q214 622 186 585T157 487Q157 431 185 395T256 359Q302 359 332 393T362 479Z" />
<glyph unicode=":" glyph-name="colon" horiz-adv-x="267" d="M133 334Q160 334 179 315T198 269Q198 243 179 224T133 205Q107 205 88 224T69 269Q69 296 88 315T133 334ZM134 124Q161 124 179 106T198 60Q198 33 179 14T134 -5Q107 -5 88 14T69 60Q69 87 88
105T134 124Z" />
<glyph unicode=";" glyph-name="semicolon" horiz-adv-x="272" d="M124 7Q96 11 82 30Q69 45 69 70Q69 91 79 107Q97 135 132 135Q162 135 182 112T202 55Q202 -27 131 -104H100L76 -85Q99 -52 109 -30Q120 -10 124 7ZM132 203Q105 203 87 221T68 268Q68 295 86
314T132 333Q159 333 178 314T197 268Q197 241 178 222T132 203Z" />
<glyph unicode="&lt;" glyph-name="less" horiz-adv-x="517" d="M476 584V485L167 332L476 197V99L42 298V358L476 584Z" />
<glyph unicode="=" glyph-name="equal" horiz-adv-x="526" d="M480 279H46V369H480V279ZM480 97H46V187H480V97Z" />
<glyph unicode="&gt;" glyph-name="greater" horiz-adv-x="517" d="M42 584L476 358V298L42 99V197L351 332L42 485V584Z" />
<glyph unicode="?" glyph-name="question" horiz-adv-x="600" d="M363 193H241V216Q242 267 264 306T339 388Q382 423 395 443T408 498Q408 546 379 578T305 611Q258 611 228 575T197 481V468H63Q65 580 109 639Q174 727 302 727Q419 727 487 656Q546 594 546
499Q546 438 522 399T428 310Q382 278 373 261T363 193ZM304 124Q332 124 350 106T369 60Q369 33 350 14T304 -5Q278 -5 259 14T240 60Q240 87 259 105T304 124Z" />
<glyph unicode="@" glyph-name="at" horiz-adv-x="812" d="M477 -46Q427 -57 381 -57Q215 -57 123 64Q46 164 46 312Q46 479 162 588Q264 684 407 684Q578 684 677 581Q765 488 765 342Q765 243 718 173Q670 102 590 102Q533 102 495 143Q452 103 390 103Q305
103 259 170Q222 223 222 299Q222 399 283 454Q334 498 409 499Q452 499 491 481L528 511H574V220Q574 193 604 193Q638 193 658 229T678 328Q678 464 597 537Q526 600 407 600Q302 600 225 526Q139 442 139 311Q139 174 223 94Q297 25 414 25Q465 25 516 36V3L477
-46ZM474 406Q446 415 419 415Q374 415 347 384T319 301Q319 246 345 215T418 184Q448 184 474 200V406Z" />
<glyph unicode="A" glyph-name="A" horiz-adv-x="709" d="M492 144H224L176 0H26L280 716H443L691 0H539L492 144ZM452 267L359 547L265 267H452Z" />
<glyph unicode="B" glyph-name="B" horiz-adv-x="697" d="M75 0V716H394Q503 716 563 663Q628 607 628 527Q628 481 606 448T530 380Q648 310 648 206Q648 112 577 52Q515 0 397 0H75ZM222 593V431H383Q486 431 486 512Q486 593 383 593H222ZM222 308V123H398Q507
123 507 215Q507 308 398 308H222Z" />
<glyph unicode="C" glyph-name="C" horiz-adv-x="709" d="M669 477H529Q500 601 376 601Q283 601 233 527Q190 462 190 354Q190 232 244 168Q291 113 371 113Q440 113 481 149T529 252H672Q665 122 572 51Q492 -11 367 -11Q207 -11 119 101Q43 198 43 357Q43 539
143 639Q230 727 370 727Q536 727 621 616Q663 561 669 477Z" />
<glyph unicode="D" glyph-name="D" horiz-adv-x="709" d="M75 0V716H355Q512 716 581 633Q668 529 668 358Q668 186 581 83Q511 0 355 0H75ZM222 123H355Q521 123 521 358Q521 593 355 593H222V123Z" />
<glyph unicode="E" glyph-name="E" horiz-adv-x="652" d="M222 308V123H610V0H75V716H592V593H222V431H565V308H222Z" />
<glyph unicode="F" glyph-name="F" horiz-adv-x="602" d="M222 308V0H75V716H578V593H222V431H536V308H222Z" />
<glyph unicode="G" glyph-name="G" horiz-adv-x="764" d="M698 390V0H610L592 102Q513 -11 377 -11Q219 -11 124 105Q41 207 41 357Q41 534 149 637Q243 727 388 727Q526 727 612 654Q686 592 698 490H560Q519 601 388 601Q288 601 235 529Q188 465 188 360Q188
244 253 175Q309 115 393 115Q482 115 539 180Q568 214 574 267H411V390H698Z" />
<glyph unicode="H" glyph-name="H" horiz-adv-x="725" d="M506 325H222V0H75V716H222V448H505V716H653V0H506V325Z" />
<glyph unicode="I" glyph-name="I" horiz-adv-x="294" d="M222 716V0H75V716H222Z" />
<glyph unicode="J" glyph-name="J" horiz-adv-x="549" d="M330 716H478V198Q478 91 410 37Q350 -11 247 -11Q146 -11 83 46Q24 101 24 206V271H171V208Q171 115 251 115Q330 115 330 198V716Z" />
<glyph unicode="K" glyph-name="K" horiz-adv-x="711" d="M222 239V0H75V716H222V401L502 716H676L390 408L706 0H530L296 316L222 239Z" />
<glyph unicode="L" glyph-name="L" horiz-adv-x="579" d="M222 716V123H565V0H75V716H222Z" />
<glyph unicode="M" glyph-name="M" horiz-adv-x="844" d="M222 557V0H75V716H295L425 146L550 716H772V0H625V557L498 0H351L222 557Z" />
<glyph unicode="N" glyph-name="N" horiz-adv-x="729" d="M510 0L222 495V0H75V716H226L510 229V716H657V0H510Z" />
<glyph unicode="O" glyph-name="O" horiz-adv-x="768" d="M386 727Q538 727 630 630Q730 525 730 358Q730 193 630 86Q539 -11 386 -11Q232 -11 141 86Q41 193 41 358Q41 523 141 630Q233 727 386 727ZM386 601Q290 601 235 526Q188 461 188 358Q188 240 249 173Q302
115 386 115Q482 115 536 190Q583 255 583 358Q583 476 522 543Q469 601 386 601Z" />
<glyph unicode="P" glyph-name="P" horiz-adv-x="656" d="M222 255V0H75V716H391Q511 716 570 651Q622 594 622 494Q622 377 556 312Q498 255 406 255H222ZM222 378H359Q475 378 475 485Q475 593 359 593H222V378Z" />
<glyph unicode="Q" glyph-name="Q" horiz-adv-x="770" d="M644 102L735 12L657 -64L561 31Q487 -10 385 -11Q234 -11 141 86Q41 192 41 358Q41 523 141 630Q232 727 386 727Q539 727 630 630Q730 522 730 358Q730 210 651 110L644 102ZM544 202L547 208Q583 269
583 359Q583 476 522 543Q469 601 386 601Q290 601 235 526Q188 461 188 358Q188 239 249 173Q302 115 386 115Q426 115 462 129L379 213L457 289L544 202Z" />
<glyph unicode="R" glyph-name="R" horiz-adv-x="706" d="M222 284V0H75V716H459Q550 716 598 667Q652 612 652 522Q652 392 530 345Q599 318 614 278Q625 249 630 85Q631 44 661 27V0H503Q481 41 481 121Q481 141 482 170Q482 190 482 199Q482 284 391 284H222ZM222
407H400Q456 407 478 425Q505 448 505 501Q505 552 478 574Q455 593 400 593H222V407Z" />
<glyph unicode="S" glyph-name="S" horiz-adv-x="655" d="M596 500H458Q451 609 308 609Q251 609 218 586T184 524Q184 486 212 467T320 433L432 412Q531 393 576 347T621 217Q621 102 533 42Q457 -11 328 -11Q181 -11 104 57Q37 116 31 221H174Q182 107 335 107Q403
107 441 131T480 199Q480 241 450 264T345 301L245 320Q136 340 90 383T43 509Q43 620 124 677Q194 727 314 727Q459 727 532 661Q595 603 596 500Z" />
<glyph unicode="T" glyph-name="T" horiz-adv-x="604" d="M382 593V0H235V593H17V716H590V593H382Z" />
<glyph unicode="U" glyph-name="U" horiz-adv-x="714" d="M495 716H643V242Q643 125 573 62Q493 -11 359 -11Q225 -11 145 62Q75 125 75 242V716H222V242Q222 115 359 115Q495 115 495 242V716Z" />
<glyph unicode="V" glyph-name="V" horiz-adv-x="652" d="M388 0H264L22 716H170L329 176L485 716H634L388 0Z" />
<glyph unicode="W" glyph-name="W" horiz-adv-x="927" d="M717 0H585L464 558L348 0H215L13 716H169L280 179L391 716H536L652 178L759 716H915L717 0Z" />
<glyph unicode="X" glyph-name="X" horiz-adv-x="655" d="M411 365L642 0H467L329 248L193 0H22L248 361L30 716H205L330 480L462 716H632L411 365Z" />
<glyph unicode="Y" glyph-name="Y" horiz-adv-x="643" d="M403 265V0H256V265L18 716H182L328 400L465 716H629L403 265Z" />
<glyph unicode="Z" glyph-name="Z" horiz-adv-x="600" d="M567 716V593L201 123H567V0H29V123L395 593H29V716H567Z" />
<glyph unicode="[" glyph-name="bracketleft" horiz-adv-x="372" d="M303 716V626H176V-12H303V-102H69V716H303Z" />
<glyph unicode="\" glyph-name="backslash" horiz-adv-x="381" d="M121 673L372 0H260L9 673H121Z" />
<glyph unicode="]" glyph-name="bracketright" horiz-adv-x="372" d="M303 716V-102H69V-12H197V626H69V716H303Z" />
<glyph unicode="^" glyph-name="asciicircum" horiz-adv-x="573" d="M513 265H402L283 559L170 265H60L222 682H345L513 265Z" />
<glyph unicode="_" glyph-name="underscore" horiz-adv-x="384" d="M388 -85V-149H-3V-85H388Z" />
<glyph unicode="`" glyph-name="grave" horiz-adv-x="491" d="M99 743H223L291 596H223L99 743Z" />
<glyph unicode="a" glyph-name="a" horiz-adv-x="546" d="M515 35V0H365Q350 19 349 54Q294 -11 189 -11Q112 -11 65 36Q27 74 27 141Q27 241 107 283Q141 301 242 319L350 339L349 377Q348 430 269 430Q218 430 198 415T172 358H40Q52 541 266 541Q384 541 436
499Q483 459 483 378V82Q483 46 515 35ZM350 256L249 233Q206 223 185 204Q165 185 165 157Q165 100 239 100Q346 100 349 217L350 256Z" />
<glyph unicode="b" glyph-name="b" horiz-adv-x="604" d="M62 716H200V470Q249 541 345 541Q452 541 514 455Q569 379 569 265Q569 135 498 57Q436 -11 345 -11Q248 -11 200 59V0H62V716ZM315 426Q262 426 231 383T199 264Q199 190 230 147T315 104Q368 104 399
147T431 264Q431 338 400 382T315 426Z" />
<glyph unicode="c" glyph-name="c" horiz-adv-x="544" d="M510 336H379Q367 388 345 409T281 430Q219 430 195 386Q169 335 169 261Q169 186 198 143T280 99Q321 99 343 120T379 192H510Q500 92 430 37Q369 -12 279 -12Q153 -12 88 69Q31 139 31 258Q31 402 106
476Q171 541 282 541Q388 541 450 480Q503 426 510 336Z" />
<glyph unicode="d" glyph-name="d" horiz-adv-x="604" d="M536 716V0H398V59Q350 -11 253 -11Q148 -11 84 77Q29 152 29 264Q29 397 99 474Q160 541 252 541Q349 541 398 467V716H536ZM283 428Q231 428 199 383T167 265Q167 193 198 149T283 104Q336 104 367 148T399
265Q399 339 367 383T283 428Z" />
<glyph unicode="e" glyph-name="e" horiz-adv-x="559" d="M523 229H167Q170 165 187 138Q216 94 278 94Q355 94 381 158H517Q494 80 428 35T272 -11Q151 -11 86 70Q29 141 29 257Q29 398 103 475Q168 541 274 541Q355 541 416 501T503 389Q524 333 524 254Q524
244 523 229ZM380 320Q370 436 273 436Q182 436 169 320H380Z" />
<glyph unicode="f" glyph-name="f" horiz-adv-x="327" d="M307 519V428H227V0H89V428H14V519H89V583Q89 716 223 716Q255 716 303 713V610Q283 613 264 613Q227 613 227 571V519H307Z" />
<glyph unicode="g" glyph-name="g" horiz-adv-x="598" d="M398 530H529V5Q529 -118 452 -171Q387 -214 274 -214Q156 -214 94 -163Q43 -122 41 -64H183Q200 -126 281 -126Q332 -126 367 -94Q398 -66 398 -7V72Q360 25 327 7T247 -11Q144 -11 84 73Q31 145 31 256Q31
387 102 470Q164 541 252 541Q338 541 398 458V530ZM280 426Q230 426 200 380T169 260Q169 189 199 146T280 103Q332 103 366 147Q398 188 398 261Q398 340 361 386Q329 426 280 426Z" />
<glyph unicode="h" glyph-name="h" horiz-adv-x="592" d="M62 716H200V455Q256 541 355 541Q425 541 473 500Q528 455 528 357V0H390V329Q390 424 306 424Q259 424 230 395T200 320V0H62V716Z" />
<glyph unicode="i" glyph-name="i" horiz-adv-x="273" d="M202 530V0H64V530H202ZM132 712Q159 712 177 693T196 647Q196 620 178 602T132 583Q105 583 86 601T67 647Q67 674 86 693T132 712Z" />
<glyph unicode="j" glyph-name="j" horiz-adv-x="275" d="M204 530V-92Q204 -158 176 -186T83 -214Q48 -214 2 -209V-99Q13 -103 27 -103Q67 -103 67 -61V530H204ZM132 712Q159 712 177 693T196 647Q196 620 178 602T132 583Q105 583 86 601T67 647Q67 674 86
693T132 712Z" />
<glyph unicode="k" glyph-name="k" horiz-adv-x="550" d="M200 324L373 530H530L349 330L542 0H381L254 234L200 174V0H62V716H200V324Z" />
<glyph unicode="l" glyph-name="l" horiz-adv-x="273" d="M202 716V0H64V716H202Z" />
<glyph unicode="m" glyph-name="m" horiz-adv-x="877" d="M62 530H199V466Q260 541 344 541Q447 541 488 463Q548 541 643 541Q723 541 767 498T812 377V0H675V355Q675 424 600 424Q556 424 531 397T506 320V0H368V355Q368 424 294 424Q250 424 225 397T200 320V0H62V530Z"
/>
<glyph unicode="n" glyph-name="n" horiz-adv-x="601" d="M62 530H200V455Q256 541 358 541Q449 541 496 487Q536 439 536 357V0H399V329Q399 424 310 424Q260 424 230 396T200 320V0H62V530Z" />
<glyph unicode="o" glyph-name="o" horiz-adv-x="598" d="M296 541Q427 541 497 457Q558 385 558 265Q558 127 479 53Q410 -11 296 -11Q165 -11 95 72Q34 145 34 265Q34 402 113 476Q182 541 296 541ZM296 430Q240 430 206 385T172 265Q172 185 210 139Q244 100
296 100Q352 100 386 145T421 265Q421 344 382 390Q348 430 296 430Z" />
<glyph unicode="p" glyph-name="p" horiz-adv-x="604" d="M199 530V454Q247 541 346 541Q393 541 438 518T511 458Q568 379 568 261Q568 134 497 56Q436 -11 346 -11Q248 -11 199 64V-214H61V530H199ZM314 426Q262 426 230 382T198 264Q198 192 230 148T314 104Q366
104 398 148T430 264Q430 337 398 381T314 426Z" />
<glyph unicode="q" glyph-name="q" horiz-adv-x="604" d="M399 530H537V-214H399V64Q350 -11 252 -11Q148 -11 85 75Q30 150 30 261Q30 379 87 458Q114 495 159 518T252 541Q350 541 399 454V530ZM284 426Q232 426 200 382T168 264Q168 193 200 149T284 104Q336
104 368 148T400 264Q400 337 368 381T284 426Z" />
<glyph unicode="r" glyph-name="r" horiz-adv-x="382" d="M62 530H200V429Q226 541 348 541Q367 541 375 541L376 405Q351 410 324 410Q256 410 230 385Q200 357 200 284V0H62V530Z" />
<glyph unicode="s" glyph-name="s" horiz-adv-x="546" d="M503 374H363Q362 406 340 419T264 433Q185 433 185 387Q185 360 233 347L407 298Q511 269 511 166Q511 85 448 35Q389 -11 278 -11Q142 -11 83 29Q25 67 21 152H158Q164 119 186 108T270 97Q373 97 373
146Q373 175 327 189L163 239Q100 258 77 283Q47 314 47 367Q47 454 113 501Q171 541 265 541Q379 541 445 490Q502 445 503 374Z" />
<glyph unicode="t" glyph-name="t" horiz-adv-x="376" d="M313 530V439H220V144Q220 115 230 104T269 93Q292 93 328 111Q331 113 333 114L349 20Q286 -11 217 -11Q82 -11 82 113V439H14V530H82V618L220 697V530H313Z" />
<glyph unicode="u" glyph-name="u" horiz-adv-x="600" d="M531 0H394V75Q338 -11 235 -11Q144 -11 97 43Q57 90 57 172V530H195V201Q195 106 283 106Q333 106 363 134T394 210V530H531V0Z" />
<glyph unicode="v" glyph-name="v" horiz-adv-x="543" d="M342 0H197L12 530H158L272 142L380 530H524L342 0Z" />
<glyph unicode="w" glyph-name="w" horiz-adv-x="764" d="M602 0H460L380 374L296 0H155L5 530H148L232 159L312 530H450L529 159L610 530H752L602 0Z" />
<glyph unicode="x" glyph-name="x" horiz-adv-x="544" d="M346 267L524 0H359L269 165L179 0H14L191 267L18 530H183L269 370L355 530H520L346 267Z" />
<glyph unicode="y" glyph-name="y" horiz-adv-x="546" d="M387 530H528L310 -96Q287 -163 249 -188T136 -214Q67 -214 40 -196L61 -103Q97 -112 121 -112Q156 -112 181 -89T206 -33V-22L9 530H160L278 144L387 530Z" />
<glyph unicode="z" glyph-name="z" horiz-adv-x="491" d="M451 530V419L191 111H460V0H21V111L283 419H38V530H451Z" />
<glyph unicode="{" glyph-name="braceleft" horiz-adv-x="382" d="M295 718L336 666V632Q317 632 299 629Q275 626 263 618Q241 602 241 566V413Q240 326 133 311V305Q241 290 241 205V203V51Q241 13 263 -1Q274 -10 301 -13Q318 -16 336 -16V-50L295 -102Q292
-102 285 -101Q272 -100 265 -99Q208 -93 175 -73Q135 -45 135 25V175Q135 257 17 257V358Q135 358 135 436Q135 439 135 440V591Q135 661 175 689Q208 709 265 715Q272 716 287 717Q292 718 295 718Z" />
<glyph unicode="|" glyph-name="bar" horiz-adv-x="213" d="M69 688H144V28H69V688Z" />
<glyph unicode="}" glyph-name="braceright" horiz-adv-x="382" d="M47 666L88 718Q91 718 98 717Q111 716 118 715Q177 709 208 689Q249 660 249 591V440Q249 437 249 433Q249 358 366 358V257Q249 257 249 175V25Q249 -44 208 -73Q176 -94 116 -100L110 -101Q97
-102 89 -102L47 -50V-16Q67 -16 84 -13Q109 -10 121 -1Q142 14 142 51V203V205Q142 290 250 305V311Q145 326 142 413V566Q142 602 121 618Q109 627 81 630Q59 632 47 632V666Z" />
<glyph unicode="~" glyph-name="asciitilde" horiz-adv-x="573" d="M510 392Q501 249 384 249Q336 249 302 274L245 316Q214 339 187 339Q137 339 135 275H59Q67 418 185 418Q233 418 267 393L323 351Q355 328 382 328Q432 328 433 392H510Z" />
<glyph unicode="&#xa0;" glyph-name="nbspace" horiz-adv-x="184" />
<glyph unicode="&#xa1;" glyph-name="exclamdown" horiz-adv-x="327" d="M65 -183V24L106 327H172L212 24V-183H65ZM136 520Q163 520 182 502T201 456Q201 429 182 410T136 391Q109 391 91 410T72 456Q72 483 90 501T136 520Z" />
<glyph unicode="&#xa2;" glyph-name="cent" horiz-adv-x="567" d="M348 683V607Q380 607 417 597Q448 591 470 580L436 487Q415 496 388 504Q363 511 337 511Q277 511 248 475Q217 436 217 344Q217 247 255 209Q284 182 336 181Q365 181 402 188Q438 196 470 207V157L421
96Q391 86 348 83V-9H272V86Q186 97 141 157Q92 218 92 342Q92 468 141 532Q187 592 272 603V683H348Z" />
<glyph unicode="&#xa3;" glyph-name="sterling" horiz-adv-x="653" d="M178 500Q178 592 231 640Q280 685 367 685Q440 685 503 649V555Q434 586 376 586Q341 586 321 567Q298 544 298 495V379H458V290H298V223Q298 158 280 123Q322 130 369 130Q477 130 561 96V52L519
0Q428 28 327 28Q224 28 92 0V98Q131 113 155 140Q178 169 178 222V290H93V379H178V500Z" />
<glyph unicode="&#xa4;" glyph-name="currency" horiz-adv-x="535" d="M114 426L55 485L115 545L174 486Q217 513 267 513Q318 513 360 486L419 545L480 486L420 427Q447 384 447 333Q447 281 420 239L478 181L419 122L360 180Q316 154 267 154Q212 154 173 180L115
122L56 182L114 240Q88 281 88 333Q88 381 114 426ZM173 333Q173 293 200 266Q228 238 267 238Q306 238 336 266Q364 294 364 333Q364 371 336 401Q306 429 267 429Q228 429 200 401Q173 372 173 333Z" />
<glyph unicode="&#xa5;" glyph-name="yen" horiz-adv-x="528" d="M500 673L347 326H443V250H322V184H443V108H322V47L263 0H207V108H84V184H207V250H84V326H179L28 673H142L264 375L387 673H500Z" />
<glyph unicode="&#xa6;" glyph-name="brokenbar" horiz-adv-x="213" d="M69 412V688H144V412H69ZM144 304V28H69V304H144Z" />
<glyph unicode="&#xa7;" glyph-name="section" horiz-adv-x="546" d="M464 540H340Q330 616 263 616Q200 616 200 566Q200 544 217 528T288 482L413 413Q508 360 508 263Q508 170 416 128Q485 79 485 -4Q485 -94 418 -147Q360 -192 270 -192Q65 -192 64 6H192Q192
3 192 -1Q192 -3 192 -4Q194 -45 211 -62Q232 -83 272 -83Q305 -83 326 -66T347 -23Q347 14 305 38L109 152Q32 197 32 281Q32 323 50 354T113 419L123 426L110 438Q62 485 62 547Q62 625 128 674Q184 716 267 716Q390 716 438 641Q461 605 464 540ZM190 380Q149
356 149 317Q149 277 201 248L345 170Q390 202 390 234Q390 274 330 306L190 380Z" />
<glyph unicode="&#xa8;" glyph-name="dieresis" horiz-adv-x="491" d="M149 723Q176 723 195 705T214 659Q214 632 195 613T149 594Q123 594 104 613T85 659Q85 686 103 704T149 723ZM336 723Q364 723 382 705T401 659Q401 632 382 613T336 594Q310 594 291 613T272
659Q272 686 291 704T336 723Z" />
<glyph unicode="&#xa9;" glyph-name="copyright" horiz-adv-x="784" d="M392 683Q484 683 567 636Q644 591 691 511Q738 431 738 336Q738 242 691 162Q646 85 567 38Q487 -9 392 -9Q298 -9 218 38Q138 84 93 162Q46 242 46 336Q46 431 93 511Q140 591 218 636Q301
683 392 683ZM392 622Q273 622 190 539Q106 453 106 336Q106 220 190 134Q275 51 392 51Q510 51 595 134Q678 219 678 336Q678 454 595 539Q512 622 392 622ZM475 131Q453 122 409 122Q315 122 264 181Q215 239 215 337Q215 433 264 491Q315 550 407 550Q471 550
539 516L507 446Q458 471 411 471Q367 471 341 441Q310 405 310 336Q310 258 344 225Q368 201 411 201Q436 201 461 207Q496 214 520 226V186L475 131Z" />
<glyph unicode="&#xaa;" glyph-name="ordfeminine" horiz-adv-x="367" d="M318 334V257H40V334H318ZM326 403V393H236Q227 404 227 424Q184 379 131 379Q87 379 61 405T34 476Q34 560 128 576L160 582Q201 589 212 595Q227 602 227 618Q227 649 179 649Q126 649
121 605H44Q46 716 177 716Q307 716 307 618V441Q307 420 326 403ZM226 542Q216 537 192 533L163 527Q116 518 116 484Q116 446 161 446Q226 446 226 520V542Z" />
<glyph unicode="&#xab;" glyph-name="guillemotleft" horiz-adv-x="509" d="M218 475L264 437L153 267L264 96L218 58H175L37 261V272L175 475H218ZM426 475L472 437L362 267L472 96L426 58H383L245 261V272L383 475H426Z" />
<glyph unicode="&#xac;" glyph-name="logicalnot" horiz-adv-x="573" d="M39 285H534V1H458V209H39V285Z" />
<glyph unicode="&#xad;" glyph-name="uni00AD" horiz-adv-x="327" d="M293 336V203H26V336H293Z" />
<glyph unicode="&#xae;" glyph-name="registered" horiz-adv-x="784" d="M392 683Q484 683 567 636Q644 591 691 511Q738 431 738 336Q738 242 691 162Q646 85 567 38Q487 -9 392 -9Q298 -9 218 38Q138 84 93 162Q46 242 46 336Q46 431 93 511Q140 591 218 636Q301
683 392 683ZM392 622Q273 622 190 539Q106 453 106 336Q106 220 190 134Q275 51 392 51Q510 51 595 134Q678 219 678 336Q678 454 595 539Q512 622 392 622ZM241 539H403Q465 539 505 500T545 401Q545 331 481 299L552 164L513 133H472L396 280H334V133H241V539ZM391
468H334V351H393Q421 351 441 369Q456 386 456 407Q456 433 444 448Q429 468 391 468Z" />
<glyph unicode="&#xaf;" glyph-name="overscore" horiz-adv-x="495" d="M495 823V745H0V823H495Z" />
<glyph unicode="&#xb0;" glyph-name="degree" horiz-adv-x="392" d="M42 528Q42 592 87 637Q133 683 197 683Q262 683 306 637Q351 592 351 528Q351 464 306 419Q263 374 197 374Q132 374 87 419Q42 464 42 528ZM119 528Q119 494 142 468Q164 443 197 443Q229
443 251 468Q274 494 274 528Q274 564 251 590Q228 615 197 615Q165 615 142 590Q119 564 119 528Z" />
<glyph unicode="&#xb1;" glyph-name="plusminus" horiz-adv-x="573" d="M518 115V-2H55V115H518ZM518 438V321H345V148H228V321H55V438H228V610H345V438H518Z" />
<glyph unicode="&#xb2;" glyph-name="twosuperior" horiz-adv-x="345" d="M320 359V279H16Q19 342 38 373T118 445Q191 494 210 515T229 570Q229 633 170 633Q111 633 111 564Q111 559 112 547H22Q21 560 21 565Q21 705 174 705Q322 705 322 574Q322 529 302 500T222
430Q159 386 137 359H320Z" />
<glyph unicode="&#xb3;" glyph-name="threesuperior" horiz-adv-x="345" d="M131 463V524Q139 523 145 523Q216 523 216 580Q216 632 164 632Q134 632 122 616T108 560H21Q25 626 49 657Q88 705 167 705Q232 705 270 674T309 590Q309 535 258 503Q323 471 323
401Q323 339 281 303T166 266Q95 266 55 303T15 406H105Q109 342 168 342Q195 342 212 358T230 401Q230 463 145 463Q138 463 131 463Z" />
<glyph unicode="&#xb4;" glyph-name="acute" horiz-adv-x="491" d="M393 743L270 596H201L270 743H393Z" />
<glyph unicode="&#xb5;" glyph-name="mu" horiz-adv-x="597" d="M200 -214H69V530H207V214Q207 106 289 106Q333 106 360 135T388 210V530H526V159Q526 116 532 102T556 87Q564 87 575 91V6Q545 -11 506 -11Q444 -11 413 42Q361 -11 299 -11Q241 -11 200 26V-214Z" />
<glyph unicode="&#xb6;" glyph-name="paragraph" horiz-adv-x="546" d="M520 716V645H477V-187H381V645H320V-187H224V262Q127 267 70 337Q20 398 20 486Q20 570 70 638Q127 716 223 716H520Z" />
<glyph unicode="&#xb7;" glyph-name="middot" horiz-adv-x="273" d="M63 415H185V294H63V415Z" />
<glyph unicode="&#xb8;" glyph-name="cedilla" horiz-adv-x="491" d="M240 0H282L253 -61Q273 -55 295 -55Q369 -55 369 -125Q369 -216 243 -216Q187 -216 107 -188L126 -137Q195 -167 228 -167Q252 -167 268 -156T284 -126Q284 -92 235 -92Q211 -92 186 -104L240 0Z" />
<glyph unicode="&#xb9;" glyph-name="onesuperior" horiz-adv-x="345" d="M145 562H40V623H42Q152 623 175 696H238V279H145V562Z" />
<glyph unicode="&#xba;" glyph-name="ordmasculine" horiz-adv-x="360" d="M328 334V257H33V334H328ZM180 716Q253 716 295 671T337 547Q337 469 295 424T180 379Q107 379 65 424T23 547Q23 631 70 676Q112 716 180 716ZM180 649Q146 649 126 621T105 547Q105
502 125 474T180 446Q214 446 234 474T255 547Q255 593 234 621T180 649Z" />
<glyph unicode="&#xbb;" glyph-name="guillemotright" horiz-adv-x="514" d="M83 475H127L264 272V261L127 58H83L37 96L148 267L37 437L83 475ZM296 475H339L477 272V261L339 58H296L250 96L361 267L250 437L296 475Z" />
<glyph unicode="&#xbc;" glyph-name="onequarter" horiz-adv-x="762" d="M234 673V302L186 263H139V565L61 508L16 566L154 673H234ZM619 673L222 0H125L521 673H619ZM698 407V147H746V77H698V31L655 0H603V77H413V135L610 407H698ZM603 298L494 147H603V298Z" />
<glyph unicode="&#xbd;" glyph-name="onehalf" horiz-adv-x="804" d="M234 673V302L186 263H139V565L61 508L16 566L154 673H234ZM628 673L231 0H134L530 673H628ZM509 369Q577 414 641 414Q698 414 733 383T769 301Q769 261 744 225T642 118Q636 112 631 108L603
81H781V43L743 0H488L489 75L540 120Q544 124 557 135Q679 240 679 287Q679 341 623 341Q599 339 554 312L509 369Z" />
<glyph unicode="&#xbe;" glyph-name="threequarters" horiz-adv-x="801" d="M40 669Q91 685 124 685Q184 685 224 654T264 575Q264 540 242 514T183 481Q229 475 256 445Q283 416 283 381Q283 328 241 296T128 264Q74 264 45 273L16 308V341Q66 326 97 326Q146
326 169 345Q187 357 187 383Q187 410 163 429Q129 454 68 454V511H115Q140 511 156 526T173 566Q173 589 153 603T100 617Q81 617 40 607V669ZM660 673L264 0H166L562 673H660ZM736 407V147H785V77H736V31L694 0H642V77H451V135L648 407H736ZM642 298L532 147H642V298Z"
/>
<glyph unicode="&#xbf;" glyph-name="questiondown" horiz-adv-x="600" d="M234 333H356V311Q355 260 333 221T258 139Q214 103 201 83T188 29Q188 -20 217 -52T292 -84Q338 -84 369 -49T400 40V58H534Q532 -54 488 -113Q423 -200 295 -200Q179 -200 110 -129Q50
-67 50 26Q50 88 75 127T169 216Q215 249 224 266T234 333ZM295 535Q322 535 340 517T359 470Q359 444 341 425T295 406Q269 406 250 425T230 470Q230 497 249 516T295 535Z" />
<glyph unicode="&#xc0;" glyph-name="Agrave" horiz-adv-x="709" d="M492 144H224L176 0H26L280 716H443L691 0H539L492 144ZM452 267L359 547L265 267H452ZM218 919H341L410 772H341L218 919Z" />
<glyph unicode="&#xc1;" glyph-name="Aacute" horiz-adv-x="709" d="M492 144H224L176 0H26L280 716H443L691 0H539L492 144ZM452 267L359 547L265 267H452ZM501 919L377 772H309L377 919H501Z" />
<glyph unicode="&#xc2;" glyph-name="Acircumflex" horiz-adv-x="709" d="M492 144H224L176 0H26L280 716H443L691 0H539L492 144ZM452 267L359 547L265 267H452ZM308 919H413L514 772H438L358 870L277 772H202L308 919Z" />
<glyph unicode="&#xc3;" glyph-name="Atilde" horiz-adv-x="709" d="M492 144H224L176 0H26L280 716H443L691 0H539L492 144ZM452 267L359 547L265 267H452ZM537 911Q530 786 445 786Q423 786 390 798L320 824Q302 830 289 830Q258 830 251 785H190Q195 907 282
907Q303 907 337 895L407 870Q424 864 441 864Q469 864 476 911H537Z" />
<glyph unicode="&#xc4;" glyph-name="Adieresis" horiz-adv-x="709" d="M492 144H224L176 0H26L280 716H443L691 0H539L492 144ZM452 267L359 547L265 267H452ZM279 907Q306 907 325 888T344 842Q344 816 325 797T279 778Q253 778 234 797T215 842Q215 869 234
888T279 907ZM432 907Q459 907 477 888T496 842Q496 815 478 797T432 778Q406 778 387 797T367 842Q367 869 386 888T432 907Z" />
<glyph unicode="&#xc5;" glyph-name="Aring" horiz-adv-x="709" d="M492 144H224L176 0H26L280 716H443L691 0H539L492 144ZM452 267L359 547L265 267H452ZM359 932Q396 932 421 907T447 844Q447 807 421 782T359 756Q322 756 296 781T270 844Q270 881 296 906T359
932ZM359 885Q342 885 330 873T317 844Q317 827 329 815T359 803Q376 803 388 815T400 844Q400 861 388 873T359 885Z" />
<glyph unicode="&#xc6;" glyph-name="AE" horiz-adv-x="982" d="M422 149H203L152 0H1L259 716H929V593H570V431H902V308H570V123H948V0H422V149ZM422 272V593H357L245 272H422Z" />
<glyph unicode="&#xc7;" glyph-name="Ccedilla" horiz-adv-x="709" d="M376 -11L353 -61Q373 -55 394 -55Q469 -55 469 -125Q469 -216 343 -216Q287 -216 207 -188L225 -137Q291 -167 328 -167Q352 -167 368 -156T384 -126Q384 -92 334 -92Q310 -92 286 -104L334
-10Q223 0 153 66Q43 167 43 357Q43 539 143 639Q230 727 370 727Q536 727 621 616Q663 561 669 477H529Q500 601 376 601Q284 601 234 527Q190 462 190 355Q190 233 244 169Q291 113 371 113Q440 113 481 149T529 252H672Q665 125 575 53Q497 -9 376 -11Z" />
<glyph unicode="&#xc8;" glyph-name="Egrave" horiz-adv-x="653" d="M222 308V123H610V0H75V716H592V593H222V431H565V308H222ZM202 919H326L394 772H326L202 919Z" />
<glyph unicode="&#xc9;" glyph-name="Eacute" horiz-adv-x="653" d="M222 308V123H610V0H75V716H592V593H222V431H565V308H222ZM469 919L345 772H276L345 919H469Z" />
<glyph unicode="&#xca;" glyph-name="Ecircumflex" horiz-adv-x="653" d="M222 308V123H610V0H75V716H592V593H222V431H565V308H222ZM285 919H391L492 772H416L335 870L255 772H180L285 919Z" />
<glyph unicode="&#xcb;" glyph-name="Edieresis" horiz-adv-x="653" d="M222 308V123H610V0H75V716H592V593H222V431H565V308H222ZM264 907Q291 907 310 888T329 842Q329 816 310 797T264 778Q237 778 219 797T200 842Q200 869 218 888T264 907ZM417 907Q444 907
462 888T481 842Q481 815 462 797T417 778Q390 778 371 797T352 842Q352 869 371 888T417 907Z" />
<glyph unicode="&#xcc;" glyph-name="Igrave" horiz-adv-x="294" d="M222 716V0H75V716H222ZM3 919H127L195 772H127L3 919Z" />
<glyph unicode="&#xcd;" glyph-name="Iacute" horiz-adv-x="294" d="M222 716V0H75V716H222ZM308 919L186 772H118L185 919H308Z" />
<glyph unicode="&#xce;" glyph-name="Icircumflex" horiz-adv-x="294" d="M222 716V0H75V716H222ZM102 919H207L308 772H232L152 870L71 772H-4L102 919Z" />
<glyph unicode="&#xcf;" glyph-name="Idieresis" horiz-adv-x="294" d="M222 716V0H75V716H222ZM61 907Q88 907 107 888T126 842Q126 816 107 797T61 778Q35 778 16 797T-3 842Q-3 869 16 888T61 907ZM214 907Q241 907 259 888T278 842Q278 815 260 797T214 778Q187
778 168 797T149 842Q149 869 168 888T214 907Z" />
<glyph unicode="&#xd0;" glyph-name="Eth" horiz-adv-x="709" d="M76 333H0V411H76V716H356Q515 716 582 633Q669 526 669 358Q669 190 582 83Q515 0 356 0H76V333ZM223 333V123H355Q445 123 482 176Q527 241 527 358Q527 475 482 540Q445 593 355 593H223V411H370V333H223Z"
/>
<glyph unicode="&#xd1;" glyph-name="Ntilde" horiz-adv-x="729" d="M510 0L222 495V0H75V716H226L510 229V716H657V0H510ZM547 911Q540 786 457 786Q432 786 400 798L330 824Q312 830 299 830Q268 830 261 785H199Q205 907 292 907Q312 907 346 895L416 870Q434
864 450 864Q479 864 485 911H547Z" />
<glyph unicode="&#xd2;" glyph-name="Ograve" horiz-adv-x="768" d="M244 919H368L437 772H368L244 919ZM379 727Q531 727 623 630Q723 525 723 358Q723 193 623 86Q532 -11 379 -11Q225 -11 134 86Q34 193 34 358Q34 523 134 630Q226 727 379 727ZM379 601Q283
601 228 526Q181 461 181 358Q181 240 242 173Q295 115 379 115Q475 115 529 190Q576 255 576 358Q576 476 515 543Q462 601 379 601Z" />
<glyph unicode="&#xd3;" glyph-name="Oacute" horiz-adv-x="768" d="M515 919L391 772H322L391 919H515ZM379 727Q531 727 623 630Q723 525 723 358Q723 193 623 86Q532 -11 379 -11Q225 -11 134 86Q34 193 34 358Q34 523 134 630Q226 727 379 727ZM379 601Q283
601 228 526Q181 461 181 358Q181 240 242 173Q295 115 379 115Q475 115 529 190Q576 255 576 358Q576 476 515 543Q462 601 379 601Z" />
<glyph unicode="&#xd4;" glyph-name="Ocircumflex" horiz-adv-x="768" d="M328 919H434L535 772H458L378 870L297 772H223L328 919ZM379 727Q531 727 623 630Q723 525 723 358Q723 193 623 86Q532 -11 379 -11Q225 -11 134 86Q34 193 34 358Q34 523 134 630Q226
727 379 727ZM379 601Q283 601 228 526Q181 461 181 358Q181 240 242 173Q295 115 379 115Q475 115 529 190Q576 255 576 358Q576 476 515 543Q462 601 379 601Z" />
<glyph unicode="&#xd5;" glyph-name="Otilde" horiz-adv-x="768" d="M379 727Q531 727 623 630Q723 525 723 358Q723 193 623 86Q532 -11 379 -11Q225 -11 134 86Q34 193 34 358Q34 523 134 630Q226 727 379 727ZM379 601Q283 601 228 526Q181 461 181 358Q181
240 242 173Q295 115 379 115Q475 115 529 190Q576 255 576 358Q576 476 515 543Q462 601 379 601ZM559 911Q552 786 469 786Q445 786 412 798L342 824Q324 830 311 830Q280 830 273 785H211Q217 907 304 907Q325 907 358 895L429 870Q446 864 462 864Q491 864
497 911H559Z" />
<glyph unicode="&#xd6;" glyph-name="Odieresis" horiz-adv-x="768" d="M379 727Q531 727 623 630Q723 525 723 358Q723 193 623 86Q532 -11 379 -11Q225 -11 134 86Q34 193 34 358Q34 523 134 630Q226 727 379 727ZM379 601Q283 601 228 526Q181 461 181 358Q181
240 242 173Q295 115 379 115Q475 115 529 190Q576 255 576 358Q576 476 515 543Q462 601 379 601ZM297 907Q324 907 343 888T362 842Q362 816 343 797T297 778Q271 778 252 797T233 842Q233 869 252 888T297 907ZM468 907Q495 907 513 888T532 842Q532 815 514
797T468 778Q442 778 423 797T403 842Q403 869 422 888T468 907Z" />
<glyph unicode="&#xd7;" glyph-name="multiply" horiz-adv-x="439" d="M345 420L407 358L281 233L404 110L342 48L219 170L97 48L35 110L157 233L32 358L94 420L219 295L345 420Z" />
<glyph unicode="&#xd8;" glyph-name="Oslash" horiz-adv-x="768" d="M117 107Q35 210 35 358Q35 522 135 630Q226 727 379 727Q517 727 606 647L686 736L737 691L651 597Q724 494 724 358Q724 193 624 86Q533 -11 379 -11Q252 -11 164 59L76 -39L26 7L117 107ZM214
214L514 545Q463 601 379 601Q284 601 229 526Q182 461 182 359Q182 276 214 214ZM552 487L256 160Q306 115 380 115Q475 115 530 189Q577 254 577 356Q577 432 552 487Z" />
<glyph unicode="&#xd9;" glyph-name="Ugrave" horiz-adv-x="714" d="M225 919H348L417 772H348L225 919ZM495 716H643V242Q643 125 573 62Q493 -11 359 -11Q225 -11 145 62Q75 125 75 242V716H222V242Q222 115 359 115Q495 115 495 242V716Z" />
<glyph unicode="&#xda;" glyph-name="Uacute" horiz-adv-x="714" d="M495 919L371 772H302L371 919H495ZM495 716H643V242Q643 125 573 62Q493 -11 359 -11Q225 -11 145 62Q75 125 75 242V716H222V242Q222 115 359 115Q495 115 495 242V716Z" />
<glyph unicode="&#xdb;" glyph-name="Ucircumflex" horiz-adv-x="714" d="M308 919H414L515 772H438L358 870L278 772H203L308 919ZM495 716H643V242Q643 125 573 62Q493 -11 359 -11Q225 -11 145 62Q75 125 75 242V716H222V242Q222 115 359 115Q495 115 495 242V716Z" />
<glyph unicode="&#xdc;" glyph-name="Udieresis" horiz-adv-x="714" d="M495 716H643V242Q643 125 573 62Q493 -11 359 -11Q225 -11 145 62Q75 125 75 242V716H222V242Q222 115 359 115Q495 115 495 242V716ZM283 907Q310 907 329 888T348 842Q348 816 329 797T283
778Q257 778 238 797T219 842Q219 869 237 888T283 907ZM441 907Q468 907 486 888T505 842Q505 815 487 797T441 778Q415 778 396 797T376 842Q376 869 395 888T441 907Z" />
<glyph unicode="&#xdd;" glyph-name="Yacute" horiz-adv-x="643" d="M403 265V0H256V265L18 716H182L328 400L465 716H629L403 265ZM467 919L343 772H275L343 919H467Z" />
<glyph unicode="&#xde;" glyph-name="Thorn" horiz-adv-x="656" d="M222 138V0H75V716H222V598H391Q505 598 561 543Q622 483 622 375Q622 258 556 193Q499 138 406 138H222ZM222 260H359Q475 260 475 368Q475 475 359 475H222V260Z" />
<glyph unicode="&#xdf;" glyph-name="germandbls" horiz-adv-x="596" d="M276 348V441H289Q330 442 355 466T380 530Q380 570 355 593T286 616Q200 616 200 533V0H62V514Q62 627 122 676Q185 727 295 727Q400 727 463 669Q518 618 518 543Q518 442 432 410Q561
383 561 239Q561 117 494 49Q436 -11 346 -11Q317 -11 276 -5V105Q278 105 283 105Q287 105 288 105Q349 106 379 130Q423 164 423 227Q423 283 387 316T289 349Q285 349 276 348Z" />
<glyph unicode="&#xe0;" glyph-name="agrave" horiz-adv-x="546" d="M130 743H254L323 596H254L130 743ZM515 35V0H365Q350 19 349 54Q294 -11 189 -11Q112 -11 65 36Q27 74 27 141Q27 241 107 283Q141 301 242 319L350 339L349 377Q348 430 269 430Q218 430 198
415T172 358H40Q52 541 266 541Q384 541 436 499Q483 459 483 378V82Q483 46 515 35ZM350 256L249 233Q206 223 185 204Q165 185 165 157Q165 100 239 100Q346 100 349 217L350 256Z" />
<glyph unicode="&#xe1;" glyph-name="aacute" horiz-adv-x="546" d="M404 743L280 596H211L280 743H404ZM515 35V0H365Q350 19 349 54Q294 -11 189 -11Q112 -11 65 36Q27 74 27 141Q27 241 107 283Q141 301 242 319L350 339L349 377Q348 430 269 430Q218 430 198
415T172 358H40Q52 541 266 541Q384 541 436 499Q483 459 483 378V82Q483 46 515 35ZM350 256L249 233Q206 223 185 204Q165 185 165 157Q165 100 239 100Q346 100 349 217L350 256Z" />
<glyph unicode="&#xe2;" glyph-name="acircumflex" horiz-adv-x="546" d="M217 743H323L424 596H347L267 694L187 596H112L217 743ZM515 35V0H365Q350 19 349 54Q294 -11 189 -11Q112 -11 65 36Q27 74 27 141Q27 241 107 283Q141 301 242 319L350 339L349 377Q348
430 269 430Q218 430 198 415T172 358H40Q52 541 266 541Q384 541 436 499Q483 459 483 378V82Q483 46 515 35ZM350 256L249 233Q206 223 185 204Q165 185 165 157Q165 100 239 100Q346 100 349 217L350 256Z" />
<glyph unicode="&#xe3;" glyph-name="atilde" horiz-adv-x="546" d="M442 735Q435 610 349 610Q327 610 295 622L225 648Q207 654 194 654Q163 654 156 609H94Q100 731 187 731Q206 731 241 719L312 694Q330 687 345 687Q374 687 380 735H442ZM515 35V0H365Q350
19 349 54Q294 -11 189 -11Q112 -11 65 36Q27 74 27 141Q27 241 107 283Q141 301 242 319L350 339L349 377Q348 430 269 430Q218 430 198 415T172 358H40Q52 541 266 541Q384 541 436 499Q483 459 483 378V82Q483 46 515 35ZM350 256L249 233Q206 223 185 204Q165
185 165 157Q165 100 239 100Q346 100 349 217L350 256Z" />
<glyph unicode="&#xe4;" glyph-name="adieresis" horiz-adv-x="546" d="M191 726Q218 726 237 707T256 661Q256 635 237 616T191 597Q164 597 146 616T127 661Q127 688 145 707T191 726ZM344 726Q371 726 389 707T408 661Q408 635 389 616T344 597Q317 597 298
616T279 661Q279 688 298 707T344 726ZM515 35V0H365Q350 19 349 54Q294 -11 189 -11Q112 -11 65 36Q27 74 27 141Q27 241 107 283Q141 301 242 319L350 339L349 377Q348 430 269 430Q218 430 198 415T172 358H40Q52 541 266 541Q384 541 436 499Q483 459 483 378V82Q483
46 515 35ZM350 256L249 233Q206 223 185 204Q165 185 165 157Q165 100 239 100Q346 100 349 217L350 256Z" />
<glyph unicode="&#xe5;" glyph-name="aring" horiz-adv-x="546" d="M269 756Q305 756 330 731T356 668Q356 631 330 605T268 579Q231 579 205 605T179 668Q179 705 205 730T269 756ZM269 709Q251 709 239 697T226 668Q226 651 238 639T268 626Q285 626 297 638T309
668Q309 685 297 697T269 709ZM515 35V0H365Q350 19 349 54Q294 -11 189 -11Q112 -11 65 36Q27 74 27 141Q27 241 107 283Q141 301 242 319L350 339L349 377Q348 430 269 430Q218 430 198 415T172 358H40Q52 541 266 541Q384 541 436 499Q483 459 483 378V82Q483
46 515 35ZM350 256L249 233Q206 223 185 204Q165 185 165 157Q165 100 239 100Q346 100 349 217L350 256Z" />
<glyph unicode="&#xe6;" glyph-name="ae" horiz-adv-x="878" d="M283 325L350 336Q348 388 330 409T269 430Q218 430 198 415T172 358H40Q52 541 267 541Q382 541 440 491Q505 541 595 541Q675 541 735 501T823 389Q843 333 843 254Q843 245 842 229H487Q489 164
507 138Q536 94 597 94Q675 94 701 158H837Q814 80 748 35T592 -11Q469 -11 396 81Q357 30 313 9T203 -12Q113 -12 67 34Q27 73 27 141Q27 264 130 293Q189 309 283 325ZM351 251L245 229Q203 220 185 204Q165 185 165 156Q165 99 239 99Q339 99 349 217L351 251ZM700
320Q690 436 592 436Q501 436 488 320H700Z" />
<glyph unicode="&#xe7;" glyph-name="ccedilla" horiz-adv-x="544" d="M289 -11L266 -61Q286 -55 307 -55Q382 -55 382 -125Q382 -216 256 -216Q200 -216 120 -188L139 -137Q204 -167 241 -167Q265 -167 281 -156T297 -126Q297 -92 248 -92Q223 -92 199 -104L247
-10Q31 14 31 258Q31 401 106 476Q171 541 282 541Q388 541 450 480Q503 426 510 336H379Q367 388 345 409T281 430Q219 430 195 386Q169 335 169 261Q169 186 199 143T280 99Q320 99 343 120T379 192H510Q500 95 434 40Q376 -8 289 -11Z" />
<glyph unicode="&#xe8;" glyph-name="egrave" horiz-adv-x="559" d="M139 743H263L331 596H263L139 743ZM523 229H167Q170 165 187 138Q216 94 278 94Q355 94 381 158H517Q494 80 428 35T272 -11Q151 -11 86 70Q29 141 29 257Q29 398 103 475Q168 541 274 541Q355
541 416 501T503 389Q524 333 524 254Q524 244 523 229ZM380 320Q370 436 273 436Q182 436 169 320H380Z" />
<glyph unicode="&#xe9;" glyph-name="eacute" horiz-adv-x="559" d="M419 743L295 596H227L295 743H419ZM523 229H167Q170 165 187 138Q216 94 278 94Q355 94 381 158H517Q494 80 428 35T272 -11Q151 -11 86 70Q29 141 29 257Q29 398 103 475Q168 541 274 541Q355
541 416 501T503 389Q524 333 524 254Q524 244 523 229ZM380 320Q370 436 273 436Q182 436 169 320H380Z" />
<glyph unicode="&#xea;" glyph-name="ecircumflex" horiz-adv-x="559" d="M232 743H338L439 596H363L282 694L202 596H127L232 743ZM523 229H167Q170 165 187 138Q216 94 278 94Q355 94 381 158H517Q494 80 428 35T272 -11Q151 -11 86 70Q29 141 29 257Q29 398
103 475Q168 541 274 541Q355 541 416 501T503 389Q524 333 524 254Q524 244 523 229ZM380 320Q370 436 273 436Q182 436 169 320H380Z" />
<glyph unicode="&#xeb;" glyph-name="edieresis" horiz-adv-x="559" d="M523 229H167Q170 165 187 138Q216 94 278 94Q355 94 381 158H517Q494 80 428 35T272 -11Q151 -11 86 70Q29 141 29 257Q29 398 103 475Q168 541 274 541Q355 541 416 501T503 389Q524 333
524 254Q524 244 523 229ZM380 320Q370 436 273 436Q182 436 169 320H380ZM190 726Q217 726 236 707T255 661Q255 635 236 616T190 597Q164 597 145 616T126 661Q126 688 145 707T190 726ZM343 726Q370 726 388 707T407 661Q407 635 389 616T343 597Q317 597 298
616T278 661Q278 688 297 707T343 726Z" />
<glyph unicode="&#xec;" glyph-name="igrave" horiz-adv-x="273" d="M203 530V0H65V530H203ZM-17 743H107L175 596H107L-17 743Z" />
<glyph unicode="&#xed;" glyph-name="iacute" horiz-adv-x="273" d="M202 530V0H64V530H202ZM283 743L159 596H91L159 743H283Z" />
<glyph unicode="&#xee;" glyph-name="icircumflex" horiz-adv-x="273" d="M202 530V0H64V530H202ZM86 743H191L292 596H216L136 694L55 596H-20L86 743Z" />
<glyph unicode="&#xef;" glyph-name="idieresis" horiz-adv-x="273" d="M202 530V0H65V530H202ZM54 726Q81 726 100 707T119 661Q119 635 100 616T54 597Q28 597 9 616T-10 661Q-10 688 9 707T54 726ZM207 726Q234 726 252 707T271 661Q271 635 253 616T207 597Q180
597 161 616T142 661Q142 688 161 707T207 726Z" />
<glyph unicode="&#xf0;" glyph-name="eth" horiz-adv-x="598" d="M259 600L184 555L142 591L211 634Q179 653 122 681L188 728Q224 714 273 686Q275 686 284 681L288 679L374 730L423 697L341 648Q558 502 558 270Q558 129 479 54Q411 -11 296 -11Q166 -11 95
74Q34 148 34 269Q34 427 145 495Q204 531 268 531Q299 531 348 514Q308 571 259 600ZM296 428Q241 428 207 383T173 264Q173 185 211 139Q244 100 296 100Q352 100 385 145T419 264Q419 343 381 388Q348 428 296 428Z" />
<glyph unicode="&#xf1;" glyph-name="ntilde" horiz-adv-x="601" d="M470 735Q463 610 377 610Q355 610 323 622L253 648Q235 654 222 654Q191 654 184 609H122Q128 731 215 731Q234 731 269 719L340 694Q358 687 373 687Q402 687 408 735H470ZM62 530H200V455Q256
541 358 541Q449 541 496 487Q536 439 536 357V0H399V329Q399 424 310 424Q260 424 230 396T200 320V0H62V530Z" />
<glyph unicode="&#xf2;" glyph-name="ograve" horiz-adv-x="598" d="M158 743H281L350 596H281L158 743ZM296 541Q427 541 497 457Q558 385 558 265Q558 127 479 53Q410 -11 296 -11Q165 -11 95 72Q34 145 34 265Q34 402 113 476Q182 541 296 541ZM296 430Q240
430 206 385T172 265Q172 185 210 139Q244 100 296 100Q352 100 386 145T421 265Q421 344 382 390Q348 430 296 430Z" />
<glyph unicode="&#xf3;" glyph-name="oacute" horiz-adv-x="598" d="M432 743L308 596H240L308 743H432ZM296 541Q427 541 497 457Q558 385 558 265Q558 127 479 53Q410 -11 296 -11Q165 -11 95 72Q34 145 34 265Q34 402 113 476Q182 541 296 541ZM296 430Q240
430 206 385T172 265Q172 185 210 139Q244 100 296 100Q352 100 386 145T421 265Q421 344 382 390Q348 430 296 430Z" />
<glyph unicode="&#xf4;" glyph-name="ocircumflex" horiz-adv-x="598" d="M246 743H351L452 596H376L296 694L215 596H140L246 743ZM296 541Q427 541 497 457Q558 385 558 265Q558 127 479 53Q410 -11 296 -11Q165 -11 95 72Q34 145 34 265Q34 402 113 476Q182
541 296 541ZM296 430Q240 430 206 385T172 265Q172 185 210 139Q244 100 296 100Q352 100 386 145T421 265Q421 344 382 390Q348 430 296 430Z" />
<glyph unicode="&#xf5;" glyph-name="otilde" horiz-adv-x="598" d="M296 541Q427 541 497 457Q558 385 558 265Q558 127 479 53Q410 -11 296 -11Q165 -11 95 72Q34 145 34 265Q34 402 113 476Q182 541 296 541ZM296 430Q240 430 206 385T172 265Q172 185 210
139Q244 100 296 100Q352 100 386 145T421 265Q421 344 382 390Q348 430 296 430ZM473 735Q466 610 381 610Q359 610 326 622L256 648Q238 654 225 654Q194 654 187 609H126Q131 731 218 731Q238 731 273 719L343 694Q361 687 377 687Q405 687 412 735H473Z" />
<glyph unicode="&#xf6;" glyph-name="odieresis" horiz-adv-x="598" d="M296 541Q427 541 497 457Q558 385 558 265Q558 127 479 53Q410 -11 296 -11Q165 -11 95 72Q34 145 34 265Q34 402 113 476Q182 541 296 541ZM296 430Q240 430 206 385T172 265Q172 185 210
139Q244 100 296 100Q352 100 386 145T421 265Q421 344 382 390Q348 430 296 430ZM214 726Q241 726 260 707T279 661Q279 635 260 616T214 597Q188 597 169 616T150 661Q150 688 169 707T214 726ZM367 726Q394 726 412 707T431 661Q431 635 413 616T367 597Q340
597 321 616T302 661Q302 688 321 707T367 726Z" />
<glyph unicode="&#xf7;" glyph-name="divide" horiz-adv-x="517" d="M259 473Q286 473 304 455T323 409Q323 382 305 363T259 344Q232 344 213 363T194 409Q194 436 213 454T259 473ZM476 282V191H42V282H476ZM259 129Q286 129 304 110T323 64Q323 37 305 19T259
0Q232 0 213 19T194 64Q194 91 213 110T259 129Z" />
<glyph unicode="&#xf8;" glyph-name="oslash" horiz-adv-x="599" d="M88 83Q35 153 35 265Q35 402 114 476Q184 541 297 541Q409 541 477 479L543 547L585 507L515 436Q560 367 560 265Q560 127 481 53Q412 -11 298 -11Q196 -11 128 42L56 -32L14 8L88 83ZM186
183L386 387Q352 430 297 430Q242 430 208 385T173 265Q173 221 186 183ZM413 332L217 132Q253 100 298 100Q354 100 388 145T422 264Q422 302 413 332Z" />
<glyph unicode="&#xf9;" glyph-name="ugrave" horiz-adv-x="600" d="M157 743H280L349 596H280L157 743ZM531 0H394V75Q338 -11 235 -11Q144 -11 97 43Q57 90 57 172V530H195V201Q195 106 283 106Q333 106 363 134T394 210V530H531V0Z" />
<glyph unicode="&#xfa;" glyph-name="uacute" horiz-adv-x="600" d="M427 743L303 596H235L303 743H427ZM531 0H394V75Q338 -11 235 -11Q144 -11 97 43Q57 90 57 172V530H195V201Q195 106 283 106Q333 106 363 134T394 210V530H531V0Z" />
<glyph unicode="&#xfb;" glyph-name="ucircumflex" horiz-adv-x="600" d="M240 743H346L447 596H370L290 694L210 596H135L240 743ZM531 0H394V75Q338 -11 235 -11Q144 -11 97 43Q57 90 57 172V530H195V201Q195 106 283 106Q333 106 363 134T394 210V530H531V0Z" />
<glyph unicode="&#xfc;" glyph-name="udieresis" horiz-adv-x="600" d="M531 0H394V75Q338 -11 235 -11Q144 -11 97 43Q57 90 57 172V530H195V201Q195 106 283 106Q333 106 363 134T394 210V530H531V0ZM218 726Q245 726 264 707T283 661Q283 635 264 616T218 597Q192
597 173 616T154 661Q154 688 173 707T218 726ZM371 726Q398 726 416 707T435 661Q435 635 417 616T371 597Q344 597 325 616T306 661Q306 688 325 707T371 726Z" />
<glyph unicode="&#xfd;" glyph-name="yacute" horiz-adv-x="546" d="M399 743L275 596H206L275 743H399ZM387 530H528L310 -96Q287 -163 249 -188T136 -214Q67 -214 40 -196L61 -103Q97 -112 121 -112Q156 -112 181 -89T206 -33V-22L9 530H160L278 144L387 530Z" />
<glyph unicode="&#xfe;" glyph-name="thorn" horiz-adv-x="607" d="M202 716V454Q250 541 349 541Q396 541 441 518T514 458Q571 379 571 261Q571 134 500 56Q439 -11 349 -11Q251 -11 202 64V-214H64V716H202ZM317 426Q265 426 233 382T201 264Q201 192 233 148T317
104Q369 104 401 148T433 264Q433 337 401 381T317 426Z" />
<glyph unicode="&#xff;" glyph-name="ydieresis" horiz-adv-x="546" d="M190 726Q217 726 236 707T255 661Q255 635 236 616T190 597Q164 597 145 616T126 661Q126 688 145 707T190 726ZM343 726Q370 726 388 707T407 661Q407 635 389 616T343 597Q316 597 297
616T278 661Q278 688 297 707T343 726ZM387 530H528L310 -96Q287 -163 249 -188T136 -214Q67 -214 40 -196L61 -103Q97 -112 121 -112Q156 -112 181 -89T206 -33V-22L9 530H160L278 144L387 530Z" />
<glyph unicode="&#x2013;" glyph-name="endash" horiz-adv-x="470" d="M433 294V191H37V294H433Z" />
<glyph unicode="&#x2014;" glyph-name="emdash" horiz-adv-x="941" d="M904 294V191H37V294H904Z" />
<glyph unicode="&#x2018;" glyph-name="quoteleft" horiz-adv-x="235" d="M154 716L178 696Q153 660 145 642Q134 622 130 604Q158 601 174 579Q185 564 185 540Q185 522 175 504Q156 476 122 476Q92 476 72 499T52 556Q52 635 123 716H154Z" />
<glyph unicode="&#x2019;" glyph-name="quoteright" horiz-adv-x="235" d="M108 588Q82 591 65 611Q52 629 52 651Q52 671 63 688Q81 716 116 716Q145 716 165 693T185 635Q185 560 115 476H83L59 496Q79 523 93 551Q102 570 108 588Z" />
<glyph unicode="&#x201a;" glyph-name="quotesinglbase" horiz-adv-x="235" d="M108 6Q82 9 65 29Q52 47 52 69Q52 89 63 105Q81 133 116 133Q146 133 165 111T185 53Q185 -22 115 -106H83L59 -86Q78 -60 93 -32Q103 -11 108 6Z" />
<glyph unicode="&#x201c;" glyph-name="quotedblleft" horiz-adv-x="416" d="M155 716L179 696Q154 660 146 642Q135 622 131 604Q145 602 155 597Q166 591 175 579Q186 564 186 540Q186 522 176 504Q157 476 123 476Q93 476 73 499T53 556Q53 635 124 716H155ZM336
716L360 696Q335 660 327 642Q316 622 312 604Q325 602 335 597Q346 591 354 581Q367 565 367 541Q367 522 357 504Q337 476 304 476Q274 476 254 499T234 556Q234 635 305 716H336Z" />
<glyph unicode="&#x201d;" glyph-name="quotedblright" horiz-adv-x="416" d="M108 588Q82 591 65 611Q52 629 52 651Q52 671 63 688Q81 716 116 716Q145 716 165 693T185 635Q185 560 115 476H83L59 496Q79 523 93 551Q102 570 108 588ZM289 588Q260 591 244
613Q233 630 233 651Q233 670 243 688Q263 716 296 716Q325 716 345 693T366 636Q366 557 295 476H264L240 496Q262 525 273 551Q283 568 289 588Z" />
<glyph unicode="&#x201e;" glyph-name="quotedblbase" horiz-adv-x="416" d="M108 6Q82 9 65 29Q52 47 52 69Q52 89 63 105Q81 133 116 133Q146 133 165 111T185 53Q185 -22 115 -106H83L59 -86Q78 -60 93 -32Q103 -11 108 6ZM289 6Q260 9 244 31Q233 47 233 70Q233
88 243 105Q263 133 296 133Q326 133 346 111T366 54Q366 -25 295 -106H264L240 -86Q261 -57 273 -32Q283 -13 289 6Z" />
<glyph unicode="&#x2022;" glyph-name="bullet" horiz-adv-x="488" d="M243 318Q297 318 335 280T373 188Q373 134 335 96T243 58Q190 58 153 96T115 188Q115 242 152 280T243 318Z" />
<glyph unicode="&#x2039;" glyph-name="guilsinglleft" horiz-adv-x="301" d="M218 475L264 437L153 267L264 96L218 58H175L37 261V272L175 475H218Z" />
<glyph unicode="&#x203a;" glyph-name="guilsinglright" horiz-adv-x="301" d="M83 475H127L264 272V261L127 58H83L37 96L148 267L37 437L83 475Z" />
</font>
</defs>
</svg>
