<?xml version="1.0" standalone="no"?>
<!DOCTYPE svg PUBLIC "-//W3C//DTD SVG 1.1//EN" "http://www.w3.org/Graphics/SVG/1.1/DTD/svg11.dtd">
<svg xmlns="http://www.w3.org/2000/svg">
<defs >
<font id="Almarai" horiz-adv-x="666" ><font-face
    font-family="Almarai ExtraBold"
    units-per-em="1000"
    panose-1="0 0 0 0 0 0 0 0 0 0"
    ascent="905"
    descent="-211"
    alphabetic="0" />
<glyph unicode=" " glyph-name="space" horiz-adv-x="184" />
<glyph unicode="!" glyph-name="exclam" horiz-adv-x="257" d="M189 716V225L124 172H61V716H189ZM129 151Q162 151 184 129T207 74Q207 41 185 18T129 -5Q97 -5 74 18T51 74Q51 106 74 128T129 151Z" />
<glyph unicode="&quot;" glyph-name="quotedbl" horiz-adv-x="455" d="M198 716V542L131 488H69V716H198ZM386 716V542L319 488H257V716H386Z" />
<glyph unicode="#" glyph-name="numbersign" horiz-adv-x="609" d="M517 672L482 489H589V385H462L442 286H557V183H423L388 0H281L316 183H233L198 0H94L127 183H21V286H147L166 385H54V489H185L220 672H326L292 489H377L412 672H517ZM357 385H272L252 286H337L357 385Z" />
<glyph unicode="$" glyph-name="dollar" horiz-adv-x="646" d="M356 716V648Q382 646 423 633T480 608V490Q408 519 356 523V403Q471 361 511 322Q554 279 554 212Q554 139 505 93Q452 45 356 37V-55H293V35Q217 39 155 60L92 138V188Q139 173 191 163Q240 155
293 153V286Q292 287 278 292Q179 330 140 372Q98 416 98 480Q98 551 150 595Q201 638 293 647V716H356ZM293 431V523Q271 521 262 513Q250 504 250 484Q250 470 256 459Q266 442 293 431ZM356 261V159Q372 161 381 165Q401 178 401 208Q401 227 390 238Q382 248
356 261Z" />
<glyph unicode="%" glyph-name="percent" horiz-adv-x="854" d="M190 695Q272 695 318 634Q362 576 362 484Q362 392 317 337Q273 282 191 282Q105 282 60 340Q18 394 18 483Q18 573 60 633Q105 695 190 695ZM679 673L283 0H163L559 673H679ZM190 621Q151 621
134 573Q122 529 122 483Q122 430 137 394Q154 356 190 356Q227 356 244 396Q257 434 257 483Q257 522 246 570Q228 621 190 621ZM663 387Q744 387 790 326Q835 269 835 176Q835 83 790 29Q746 -26 663 -26Q578 -26 533 32Q491 85 491 175Q491 266 533 325Q579
387 663 387ZM663 313Q625 313 608 265Q596 224 596 175Q596 122 610 86Q626 48 663 48Q699 48 716 88Q731 127 731 175Q731 216 719 262Q701 313 663 313Z" />
<glyph unicode="&amp;" glyph-name="ampersand" horiz-adv-x="738" d="M683 330Q675 242 589 174L739 0H531L481 61Q384 -15 283 -15Q179 -15 116 46Q51 110 51 202Q51 269 89 324T197 412Q135 484 135 551Q135 632 202 683Q260 727 342 727Q435 727 493 669Q543
619 543 546Q543 430 420 369L495 279Q524 298 537 330H683ZM337 467Q402 507 402 554Q402 579 386 595T343 611Q318 611 302 596T285 557Q285 520 337 467ZM286 300Q216 260 216 206Q216 173 237 150T288 126Q342 126 390 175L286 300Z" />
<glyph unicode="&apos;" glyph-name="quotesingle" horiz-adv-x="267" d="M198 716V542L131 488H69V716H198Z" />
<glyph unicode="(" glyph-name="parenleft" horiz-adv-x="355" d="M254 716L310 671Q258 590 233 493Q208 401 208 302Q208 191 241 87Q264 16 310 -62L254 -106H213Q143 -26 108 82Q74 185 74 301Q74 418 108 523Q143 633 213 716H254Z" />
<glyph unicode=")" glyph-name="parenright" horiz-adv-x="355" d="M101 716H143Q213 633 248 523Q282 419 282 301Q282 185 248 82Q213 -26 143 -106H101L46 -62Q92 15 115 87Q148 191 148 302Q148 401 123 493Q97 590 46 671L101 716Z" />
<glyph unicode="*" glyph-name="asterisk" horiz-adv-x="644" d="M526 534L399 493L479 388L398 328L320 438L243 328L162 388L244 493L118 534L150 629L273 582L270 716H373L369 582L492 629L526 534Z" />
<glyph unicode="+" glyph-name="plus" horiz-adv-x="534" d="M213 26V191H46V300H213V468H321V300H487V191H321V26H213Z" />
<glyph unicode="," glyph-name="comma" horiz-adv-x="265" d="M112 -2Q51 10 51 73Q51 106 73 128T128 151Q163 151 185 126T208 63Q208 -20 133 -104H91L67 -84Q87 -55 97 -35Q108 -13 112 -2Z" />
<glyph unicode="-" glyph-name="hyphen" horiz-adv-x="321" d="M284 320V191H37V320H284Z" />
<glyph unicode="." glyph-name="period" horiz-adv-x="257" d="M129 151Q162 151 184 129T207 74Q207 41 185 18T129 -5Q97 -5 74 18T51 74Q51 106 74 128T129 151Z" />
<glyph unicode="/" glyph-name="slash" horiz-adv-x="409" d="M399 673L148 0H9L260 673H399Z" />
<glyph unicode="0" glyph-name="zero" horiz-adv-x="574" d="M538 348Q538 191 478 94Q412 -13 288 -13Q163 -13 98 91Q37 189 37 348Q37 509 98 615Q163 729 286 729Q426 729 493 582Q538 482 538 348ZM285 114Q341 114 363 188Q385 260 385 347Q385 429 368
506Q347 602 286 602Q229 602 209 512Q191 436 191 347Q191 254 213 183Q235 114 285 114Z" />
<glyph unicode="1" glyph-name="one" horiz-adv-x="434" d="M365 716V67L287 0H211V538L102 448L32 536L240 716H365Z" />
<glyph unicode="2" glyph-name="two" horiz-adv-x="503" d="M58 661Q153 724 252 724Q355 724 409 661Q455 608 455 520Q455 463 428 408T329 263Q287 209 282 205L209 129H470V79L408 0H32V129L103 197L168 267Q257 361 288 412T320 512Q320 588 226 588Q181
588 132 555L58 661Z" />
<glyph unicode="3" glyph-name="three" horiz-adv-x="520" d="M84 696Q168 725 223 725Q329 725 396 668Q460 613 460 525Q460 403 336 364Q408 348 448 304T488 197Q488 95 402 37Q335 -9 244 -10Q240 -10 232 -10Q166 -10 99 4L55 59V120Q133 106 181 106Q334
106 333 197Q333 244 295 273Q269 293 235 300T127 309V426H242Q274 426 292 447T311 502Q311 591 200 591Q155 591 84 569V696Z" />
<glyph unicode="4" glyph-name="four" horiz-adv-x="541" d="M443 716V290H518V162H443V70L365 0H295V162H23V262L302 716H443ZM295 514L162 290H295V514Z" />
<glyph unicode="5" glyph-name="five" horiz-adv-x="517" d="M426 716V587H216L209 450Q226 451 239 451Q360 451 424 378Q480 315 480 208Q480 98 394 40Q326 -6 225 -6Q159 -6 92 8L48 63V124Q126 110 174 110Q259 110 293 134T327 219Q327 282 296 308T192
335Q153 335 72 325Q61 323 54 323L76 716H426Z" />
<glyph unicode="6" glyph-name="six" horiz-adv-x="557" d="M177 364Q242 432 322 432Q420 432 475 366Q523 310 523 224Q523 108 458 47Q400 -8 300 -8Q172 -8 105 81Q51 153 51 265V285Q51 474 118 589Q194 718 342 718Q376 718 420 704L469 614V592Q464 592
442 596Q393 603 365 603Q271 603 227 547T177 364ZM281 314Q244 314 223 291T201 227Q201 115 290 115Q326 115 349 143T372 218Q372 262 348 288T281 314Z" />
<glyph unicode="7" glyph-name="seven" horiz-adv-x="531" d="M501 716V620L285 60L210 0H96L330 587H30V716H501Z" />
<glyph unicode="8" glyph-name="eight" horiz-adv-x="561" d="M186 370Q66 439 66 549Q66 645 140 692Q196 728 284 728Q379 728 439 678Q497 630 497 550Q497 441 372 369Q441 335 472 304Q519 255 519 183Q519 82 436 29Q371 -13 280 -13Q174 -13 107 42Q41
95 41 184Q41 288 186 370ZM285 431Q343 473 343 549Q343 616 282 616Q256 616 241 604Q220 587 220 548Q220 515 236 485Q251 456 285 431ZM282 314Q193 267 193 193Q193 111 282 112Q372 112 372 192Q372 264 282 314Z" />
<glyph unicode="9" glyph-name="nine" horiz-adv-x="537" d="M370 346Q344 314 316 298Q276 275 229 275Q134 275 81 345Q37 402 37 486Q37 603 101 665Q158 722 259 722Q370 722 434 640Q496 562 496 395Q496 221 450 127Q394 14 267 -6Q249 -8 232 -8Q190 -8
139 4L95 59V124Q136 109 184 109Q295 109 340 184Q355 209 360 239T370 346ZM348 485Q348 597 271 597Q187 597 187 494Q187 449 209 422T269 395Q302 395 325 421T348 485Z" />
<glyph unicode=":" glyph-name="colon" horiz-adv-x="257" d="M129 381Q162 381 184 358T207 303Q207 270 185 248T129 225Q97 225 74 247T51 303Q51 335 74 358T129 381ZM129 151Q161 151 184 129T207 74Q207 41 184 18T129 -5Q97 -5 74 18T51 74Q51 106 73 128T129
151Z" />
<glyph unicode=";" glyph-name="semicolon" horiz-adv-x="265" d="M112 -2Q51 10 51 73Q51 106 73 128T128 151Q163 151 185 126T208 63Q208 -20 133 -104H91L67 -84Q87 -55 97 -35Q108 -13 112 -2ZM128 224Q95 224 73 247T50 303Q50 335 72 358T128 381Q160 381
183 358T206 303Q206 270 183 247T128 224Z" />
<glyph unicode="&lt;" glyph-name="less" horiz-adv-x="524" d="M482 593V474L196 333L482 208V89L41 293V363L482 593Z" />
<glyph unicode="=" glyph-name="equal" horiz-adv-x="534" d="M487 274H46V382H487V274ZM487 97H46V206H487V97Z" />
<glyph unicode="&gt;" glyph-name="greater" horiz-adv-x="524" d="M41 593L482 363V293L41 89V208L327 333L41 474V593Z" />
<glyph unicode="?" glyph-name="question" horiz-adv-x="601" d="M46 483Q52 611 131 677Q200 734 313 734Q433 734 504 668Q564 610 564 522Q564 462 537 425T426 339Q390 317 380 282Q377 271 376 238H217L218 290Q219 347 250 386Q266 406 315 438Q355 465
367 481T380 525Q380 553 361 570T310 588Q227 588 223 483H46ZM301 157Q333 157 356 135T379 80Q379 47 356 24T301 1Q268 1 246 24T223 80Q223 112 245 134T301 157Z" />
<glyph unicode="@" glyph-name="at" horiz-adv-x="821" d="M489 -44Q434 -59 379 -59Q213 -59 122 64Q48 164 48 315Q48 482 166 590Q269 684 413 684Q582 684 682 584Q773 493 773 348Q773 249 724 176Q675 103 594 103Q536 103 488 150Q452 104 390 104Q306
104 260 173Q224 228 224 303Q224 395 283 450Q335 499 413 499Q455 499 490 487L521 511H585V241Q585 211 610 211Q638 211 654 243T671 330Q671 460 593 529Q526 588 412 588Q315 588 244 519Q160 439 160 311Q160 156 275 70Q323 41 405 41H409Q416 40 419 40Q491
40 540 60V19L489 -44ZM461 392Q439 397 422 397Q386 397 365 372T344 302Q344 257 365 230T422 202Q439 202 461 211V392Z" />
<glyph unicode="A" glyph-name="A" horiz-adv-x="718" d="M454 716L722 0H528L482 131H234L188 0H-4L264 716H454ZM439 265L405 362Q375 450 359 523Q339 445 310 360L277 265H439Z" />
<glyph unicode="B" glyph-name="B" horiz-adv-x="730" d="M66 716H410Q515 716 569 689Q661 643 661 536Q661 439 567 391Q609 376 629 360Q695 310 695 214Q695 95 599 37Q538 0 432 0H66V716ZM253 573V434H386Q479 434 479 503Q479 573 381 573H253ZM253 312V147H400Q506
147 506 229Q506 312 396 312H253Z" />
<glyph unicode="C" glyph-name="C" horiz-adv-x="746" d="M722 279Q715 167 645 86Q556 -18 391 -18Q215 -18 118 104Q35 207 35 359Q35 516 130 623Q229 734 397 734Q537 734 630 647Q710 572 717 463H535Q524 512 501 537Q462 580 394 580Q310 580 264 513Q225
454 225 358Q225 247 275 188Q319 136 392 136Q467 136 506 191Q527 221 535 279H722Z" />
<glyph unicode="D" glyph-name="D" horiz-adv-x="760" d="M66 716H372Q529 716 617 636Q726 538 726 363Q726 182 624 83Q539 0 371 0H66V716ZM253 562V154H356Q444 154 486 199Q536 254 536 357Q536 474 467 527Q420 562 343 562H253Z" />
<glyph unicode="E" glyph-name="E" horiz-adv-x="688" d="M639 716V562H253V443H606V296H253V154H648V0H66V716H639Z" />
<glyph unicode="F" glyph-name="F" horiz-adv-x="613" d="M595 716V562H253V422H549V276H253V0H66V716H595Z" />
<glyph unicode="G" glyph-name="G" horiz-adv-x="779" d="M724 389V0H604Q594 46 594 66Q594 68 594 71Q594 75 594 78Q518 -18 379 -18Q214 -18 118 99Q35 201 35 356Q35 536 149 642Q248 734 398 734Q534 734 624 652Q702 581 713 473H532Q508 580 395 580Q313
580 269 522T225 354Q225 136 403 136Q534 136 553 256H423V389H724Z" />
<glyph unicode="H" glyph-name="H" horiz-adv-x="748" d="M683 716V0H496V296H253V0H66V716H253V457H496V716H683Z" />
<glyph unicode="I" glyph-name="I" horiz-adv-x="318" d="M253 716V0H66V716H253Z" />
<glyph unicode="J" glyph-name="J" horiz-adv-x="562" d="M507 716V237Q507 121 456 60Q389 -18 258 -18Q101 -18 39 88Q6 145 6 253Q6 266 6 284H177V265Q177 190 189 168Q206 136 252 136Q289 136 304 157T320 229V716H507Z" />
<glyph unicode="K" glyph-name="K" horiz-adv-x="736" d="M722 716L456 435L755 0H523L330 300L253 221V0H66V716H253V537V484V435Q292 489 319 520L491 716H722Z" />
<glyph unicode="L" glyph-name="L" horiz-adv-x="617" d="M589 161V0H66V716H253V161H589Z" />
<glyph unicode="M" glyph-name="M" horiz-adv-x="932" d="M867 716V0H690V161Q690 316 699 545Q661 384 622 261L539 0H396L312 254Q275 365 234 545Q243 341 243 185V0H66V716H334L411 467Q445 358 469 218Q502 378 530 471L603 716H867Z" />
<glyph unicode="N" glyph-name="N" horiz-adv-x="751" d="M687 716V0H505L312 325L271 398Q260 416 241 459Q248 380 248 277V0H66V716H255L433 413Q485 323 513 263Q505 368 505 448V716H687Z" />
<glyph unicode="O" glyph-name="O" horiz-adv-x="777" d="M391 734Q558 734 657 616Q742 513 742 358Q742 179 632 74Q536 -18 391 -18Q221 -18 121 100Q35 202 35 358Q35 537 141 638Q243 734 391 734ZM390 580Q309 580 264 512Q225 454 225 359Q225 248 275
188Q319 136 391 136Q467 136 510 195T553 362Q553 471 503 529Q460 580 390 580Z" />
<glyph unicode="P" glyph-name="P" horiz-adv-x="690" d="M66 716H361Q503 716 566 673Q664 607 664 473Q664 364 590 297Q526 239 401 239H253V0H66V716ZM253 562V386H376Q482 386 482 474Q482 560 369 561L253 562Z" />
<glyph unicode="Q" glyph-name="Q" horiz-adv-x="774" d="M650 105L744 2L653 -81L556 25L553 28L550 26Q482 -18 381 -18Q217 -18 119 100Q35 202 35 357Q35 533 149 640Q247 734 391 734Q553 734 653 615Q739 512 739 363Q738 196 650 105ZM527 239Q549 281
550 359Q550 470 501 529Q459 580 388 580Q312 580 269 521T225 359Q225 251 274 189Q318 136 386 136Q413 136 436 144L451 149L450 150L366 237L455 319L527 239Z" />
<glyph unicode="R" glyph-name="R" horiz-adv-x="749" d="M64 716H417Q526 716 583 682Q680 625 680 509Q680 449 650 402T569 334Q614 322 641 280Q659 252 665 223T681 89Q688 23 699 7L705 0H514Q505 21 493 150Q485 215 457 240T366 266H251V0H64V716ZM251
569V400H383Q496 400 496 486Q496 569 381 569H251Z" />
<glyph unicode="S" glyph-name="S" horiz-adv-x="674" d="M614 501H436Q432 589 321 589Q224 589 224 526Q224 497 250 484Q272 473 391 443Q504 414 555 382Q643 328 643 220Q643 102 550 38Q469 -18 337 -18Q177 -18 93 59Q19 126 17 241H205Q211 127 344 127Q453
127 453 200Q453 234 425 250T283 299Q146 338 99 378Q44 425 44 514Q44 620 132 681Q209 734 329 734Q472 734 547 665Q612 605 614 501Z" />
<glyph unicode="T" glyph-name="T" horiz-adv-x="648" d="M630 716V555H416V0H230V555H17V716H630Z" />
<glyph unicode="U" glyph-name="U" horiz-adv-x="733" d="M678 716V290Q678 147 619 76Q541 -18 367 -18Q182 -18 104 88Q55 155 55 292V716H242V278Q242 203 272 170T371 136Q434 136 463 169T492 278V716H678Z" />
<glyph unicode="V" glyph-name="V" horiz-adv-x="667" d="M671 716L438 0H223L-4 716H192L257 508Q312 333 333 184Q356 334 410 507L475 716H671Z" />
<glyph unicode="W" glyph-name="W" horiz-adv-x="964" d="M967 716L770 0H583L527 241Q512 302 497 399Q487 460 480 496Q475 465 465 401Q454 325 436 244L382 0H192L-3 716H185L239 485Q271 344 289 193Q309 348 339 482L393 716H571L621 496Q656 340 674 193Q695
362 730 507L779 716H967Z" />
<glyph unicode="X" glyph-name="X" horiz-adv-x="700" d="M687 716L458 377L712 0H485L397 143Q368 190 346 240Q326 195 292 141L203 0H-13L243 377L9 716H229L300 598Q332 545 354 495Q376 545 404 590L479 716H687Z" />
<glyph unicode="Y" glyph-name="Y" horiz-adv-x="665" d="M690 716L426 269V0H239V269L-24 716H188L271 564Q305 502 334 426Q369 515 402 575L481 716H690Z" />
<glyph unicode="Z" glyph-name="Z" horiz-adv-x="669" d="M633 716V572L357 258Q334 232 260 156Q360 161 409 161H647V0H24V151L314 482Q335 507 392 557H371Q340 556 329 556Q270 555 260 555H46V716H633Z" />
<glyph unicode="[" glyph-name="bracketleft" horiz-adv-x="372" d="M303 716V605H202V9H303V-102H69V716H303Z" />
<glyph unicode="\" glyph-name="backslash" horiz-adv-x="409" d="M148 673L399 0H260L9 673H148Z" />
<glyph unicode="]" glyph-name="bracketright" horiz-adv-x="372" d="M303 716V-102H69V9H170V605H69V716H303Z" />
<glyph unicode="^" glyph-name="asciicircum" horiz-adv-x="537" d="M174 368H11L166 721H372L527 368H364L269 596L174 368Z" />
<glyph unicode="_" glyph-name="underscore" horiz-adv-x="384" d="M387 -85V-149H-4V-85H387Z" />
<glyph unicode="`" glyph-name="grave" horiz-adv-x="537" d="M93 735H271L358 591H251L93 735Z" />
<glyph unicode="a" glyph-name="a" horiz-adv-x="587" d="M559 0H386Q378 25 377 49Q329 -14 207 -14Q116 -14 67 34Q24 76 24 145Q24 240 108 279Q144 295 256 316L374 338V369Q372 426 295 426Q253 426 234 412T208 360H47Q56 533 297 533Q425 533 489 487Q519
464 530 436T541 349Q541 339 540 287V276L539 190Q539 155 539 143Q539 131 538 105Q538 91 538 83Q538 27 559 0ZM376 237L298 220Q237 206 217 192T197 150Q197 89 266 89Q324 89 356 130Q374 152 375 200L376 237Z" />
<glyph unicode="b" glyph-name="b" horiz-adv-x="632" d="M229 716V459Q290 535 381 535Q488 535 549 451Q602 379 602 266Q602 130 530 53Q467 -14 369 -14Q279 -14 223 61V0H59V716H229ZM327 401Q280 401 252 364T224 265Q224 200 251 163T328 125Q375 125 402
162T430 265Q430 327 402 364T327 401Z" />
<glyph unicode="c" glyph-name="c" horiz-adv-x="588" d="M563 204Q548 93 471 36Q404 -14 303 -14Q171 -14 95 70Q29 143 29 255Q29 390 114 466Q189 533 304 533Q421 533 491 471Q553 416 559 331H394Q381 409 307 409Q202 409 202 256Q202 113 304 113Q385
113 399 204H563Z" />
<glyph unicode="d" glyph-name="d" horiz-adv-x="632" d="M574 716V0H403V61Q358 -14 262 -14Q150 -14 86 71Q31 146 31 263Q31 394 100 468Q160 534 253 534Q350 534 403 459V716H574ZM306 401Q257 401 231 365T204 262Q204 125 306 125Q355 125 382 161T410
262Q410 327 382 364T306 401Z" />
<glyph unicode="e" glyph-name="e" horiz-adv-x="610" d="M572 159Q560 113 526 74Q449 -14 313 -14Q190 -14 114 54Q29 130 29 255Q29 386 117 465Q193 533 306 533Q443 533 517 443Q582 364 582 236Q582 227 582 220H196Q198 164 229 133T313 101Q378 101 412
159H572ZM415 317Q402 418 308 418Q213 418 198 317H415Z" />
<glyph unicode="f" glyph-name="f" horiz-adv-x="367" d="M360 714V594Q335 596 316 596Q276 596 264 587T252 550V519H353V407H252V0H81V407H-1V519H81V543Q81 636 127 676T280 717Q308 717 360 714Z" />
<glyph unicode="g" glyph-name="g" horiz-adv-x="622" d="M564 519V69Q564 -36 529 -89Q465 -184 302 -184Q69 -184 48 -17H218Q234 -74 304 -74Q357 -74 378 -48T400 42V99Q346 26 250 26Q142 26 83 103Q31 170 31 277Q31 401 100 472Q160 533 254 533Q347 533
400 453V519H564ZM300 404Q253 404 226 371T198 279Q198 220 225 186T301 151Q348 151 375 185T403 278Q403 337 376 370T300 404Z" />
<glyph unicode="h" glyph-name="h" horiz-adv-x="632" d="M229 716V451Q290 533 393 533Q498 533 547 463Q578 417 578 327V0H408V296Q408 347 392 367Q370 394 326 394Q269 394 243 348Q229 324 229 260V0H59V716H229Z" />
<glyph unicode="i" glyph-name="i" horiz-adv-x="287" d="M229 519V0H59V519H229ZM144 735Q176 735 199 713T222 657Q222 625 199 602T144 579Q111 579 89 602T66 657Q66 690 88 712T144 735Z" />
<glyph unicode="j" glyph-name="j" horiz-adv-x="287" d="M229 519V6Q229 -66 214 -102Q180 -178 42 -178Q17 -178 -29 -176V-40Q-20 -39 8 -39Q48 -38 55 -11Q59 2 59 72V519H229ZM143 735Q176 735 199 713T222 657Q222 625 199 602T143 579Q111 579 89 602T66
657Q66 690 88 712T143 735Z" />
<glyph unicode="k" glyph-name="k" horiz-adv-x="600" d="M584 519L393 325L610 0H406L277 210L229 166V0H59V716H229V342Q249 372 266 390L387 519H584Z" />
<glyph unicode="l" glyph-name="l" horiz-adv-x="287" d="M229 716V0H59V716H229Z" />
<glyph unicode="m" glyph-name="m" horiz-adv-x="929" d="M223 519V450Q281 533 383 533Q486 533 529 450Q592 533 694 533Q784 533 833 477Q875 427 875 345V0H705V301Q705 394 633 394Q584 394 563 354Q552 333 552 285V0H382V308Q382 394 313 394Q229 394 229
285V0H59V519H223Z" />
<glyph unicode="n" glyph-name="n" horiz-adv-x="630" d="M223 519V450Q285 533 393 533Q497 533 545 464Q576 418 576 322V0H405V294Q405 335 397 355Q381 394 326 394Q266 394 242 348Q229 324 229 277V0H59V519H223Z" />
<glyph unicode="o" glyph-name="o" horiz-adv-x="607" d="M304 -14Q173 -14 96 72Q29 147 29 260Q29 390 115 467Q190 533 303 533Q435 533 512 448Q578 375 578 261Q578 130 492 53Q417 -14 304 -14ZM302 409Q254 409 228 370T202 260Q202 110 304 110Q406 110
406 261Q406 409 302 409Z" />
<glyph unicode="p" glyph-name="p" horiz-adv-x="632" d="M223 519V458Q278 533 375 533Q484 533 547 447Q602 372 602 256Q602 125 533 50Q474 -14 381 -14Q286 -14 229 60V-175H59V519H223ZM327 394Q278 394 251 358T224 255Q224 190 251 154T327 118Q429 118
429 255Q429 394 327 394Z" />
<glyph unicode="q" glyph-name="q" horiz-adv-x="632" d="M574 519V-175H404V61Q347 -15 254 -15Q145 -15 84 69Q31 141 31 255Q31 390 102 466Q163 533 259 533Q360 533 410 459V519H574ZM304 394Q256 394 230 357T204 252Q204 118 305 118Q409 118 409 256Q409
394 304 394Z" />
<glyph unicode="r" glyph-name="r" horiz-adv-x="439" d="M430 522L429 382Q392 393 359 393Q229 393 229 226V0H59V519H223V430Q253 533 390 533Q406 533 430 522Z" />
<glyph unicode="s" glyph-name="s" horiz-adv-x="545" d="M504 373H347Q343 403 324 415T260 428Q192 428 192 386Q192 364 213 354T313 329Q426 307 471 271T517 165Q517 75 442 27Q376 -14 267 -14Q129 -14 63 51Q31 83 22 101T9 162H176Q180 126 200 112T269
97Q349 97 349 150Q349 173 330 183T240 210Q129 234 89 256Q25 292 25 372Q25 450 87 491T263 533Q404 533 464 466Q500 427 504 373Z" />
<glyph unicode="t" glyph-name="t" horiz-adv-x="376" d="M372 519V407H249V193Q249 121 314 121Q352 121 374 136L404 14Q355 -7 261 -7Q145 -7 106 43Q89 65 84 91T79 177V407H-8V519H79V629L249 718V519H372Z" />
<glyph unicode="u" glyph-name="u" horiz-adv-x="630" d="M572 519V0H401V70Q352 -14 239 -14Q140 -14 90 51Q55 96 55 194V519H225V242Q225 175 238 156Q258 125 306 125Q365 125 390 174Q401 197 401 258V519H572Z" />
<glyph unicode="v" glyph-name="v" horiz-adv-x="530" d="M538 519L366 0H168L-8 519H172L225 339Q255 241 268 152Q279 223 310 331L366 519H538Z" />
<glyph unicode="w" glyph-name="w" horiz-adv-x="824" d="M830 519L668 0H495L444 198Q426 267 411 370Q394 262 378 198L329 0H156L-7 519H169L215 347Q236 269 255 150Q275 275 294 354L333 519H491L535 336Q557 247 571 150Q588 262 607 333L656 519H830Z" />
<glyph unicode="x" glyph-name="x" horiz-adv-x="521" d="M516 519L352 275L537 0H350L294 87Q284 104 261 157Q241 114 223 86L170 0H-17L165 275L0 519H188L228 454Q237 441 261 391Q288 442 298 459L334 519H516Z" />
<glyph unicode="y" glyph-name="y" horiz-adv-x="539" d="M546 519L358 -5Q319 -113 274 -147T126 -181Q71 -181 1 -169L28 -34Q50 -42 85 -42Q140 -42 155 -19Q171 4 171 32Q171 38 168 45L-9 519H172L244 289Q257 246 272 168Q292 257 304 295L372 519H546Z" />
<glyph unicode="z" glyph-name="z" horiz-adv-x="533" d="M502 519V390L322 201Q311 190 282 166Q264 151 236 129Q259 127 269 127L319 129H522V0H25V129L201 310Q221 331 294 390Q282 390 270 390H233H46V519H502Z" />
<glyph unicode="{" glyph-name="braceleft" horiz-adv-x="382" d="M277 718L335 645V603Q316 602 305 600Q297 597 289 591Q267 576 267 539V413Q263 327 159 311V305Q267 289 267 208Q267 205 267 203V77Q267 14 331 14Q332 14 335 14V-29L277 -102Q274 -101
268 -101Q253 -99 246 -98Q201 -91 174 -73Q134 -46 134 25V167Q134 249 16 249V366Q134 366 134 443Q134 445 134 448V591Q134 661 174 689Q201 707 245 713Q252 715 270 717Q275 717 277 718Z" />
<glyph unicode="|" glyph-name="bar" horiz-adv-x="223" d="M69 688H154V28H69V688Z" />
<glyph unicode="}" glyph-name="braceright" horiz-adv-x="382" d="M46 645L104 718Q107 717 115 716Q129 715 135 713Q181 707 207 689Q248 661 248 591V448Q247 445 247 443Q247 366 365 366V249Q248 249 248 167V25Q248 -46 207 -73Q180 -91 131 -99Q122 -100
105 -102L46 -29V14Q50 14 51 14Q115 14 115 77V203Q115 205 115 208Q115 289 222 305V311Q118 327 115 413V539Q115 576 93 591Q83 598 69 601Q58 603 46 603V645Z" />
<glyph unicode="~" glyph-name="asciitilde" horiz-adv-x="716" d="M188 230L99 305Q160 460 264 460Q297 460 383 425Q444 401 460 401Q498 401 530 463L620 388Q585 304 547 269T451 234Q416 234 331 270Q278 292 256 292Q221 292 188 230Z" />
<glyph unicode="&#xa0;" glyph-name="nbspace" horiz-adv-x="184" />
<glyph unicode="&#xa1;" glyph-name="exclamdown" horiz-adv-x="360" d="M211 281L258 -17V-197H80V-20L127 281H211ZM162 516Q194 516 217 494T240 438Q240 406 217 383T162 360Q129 360 107 383T84 438Q84 471 106 493T162 516Z" />
<glyph unicode="&#xa2;" glyph-name="cent" horiz-adv-x="582" d="M366 683V607Q395 607 435 598Q474 589 493 580L450 468Q429 478 404 485Q376 492 355 492Q296 492 272 454Q250 421 250 346Q250 202 360 202Q385 202 417 209Q434 212 469 222Q476 224 481 225V165L418
87Q415 87 405 86Q379 84 366 84V-9H279V86Q189 98 143 157Q92 221 92 342Q92 466 143 532Q189 591 279 603V683H366Z" />
<glyph unicode="&#xa3;" glyph-name="sterling" horiz-adv-x="661" d="M173 489Q173 593 228 644Q277 688 367 688Q416 688 442 681T510 648V534Q436 563 381 563Q356 563 341 550Q325 533 325 492V393H474V283H325V242Q325 178 311 149Q344 157 389 157Q491 157
568 124V67L515 0Q433 26 326 26Q220 26 92 0V123Q132 143 152 166Q173 192 173 241V283H93V393H173V489Z" />
<glyph unicode="&#xa4;" glyph-name="currency" horiz-adv-x="552" d="M114 422L55 480L129 553L188 495Q228 518 275 518Q321 518 364 494L422 553L497 482L438 423Q461 381 461 333Q461 286 438 243L495 186L422 113L364 171Q320 149 275 149Q222 149 186 170L129
114L56 187L114 244Q91 287 91 333Q91 378 114 422ZM195 333Q195 300 219 276Q243 252 275 252Q309 252 334 276Q358 299 358 333Q358 368 334 391Q309 414 275 414Q243 414 219 391Q195 366 195 333Z" />
<glyph unicode="&#xa5;" glyph-name="yen" horiz-adv-x="534" d="M507 673L362 331H446V245H340V184H446V97H340V59L266 0H196V97H87V184H196V245H87V331H170L28 673H165L267 412L371 673H507Z" />
<glyph unicode="&#xa6;" glyph-name="brokenbar" horiz-adv-x="223" d="M69 412V688H154V412H69ZM154 304V28H69V304H154Z" />
<glyph unicode="&#xa7;" glyph-name="section" horiz-adv-x="644" d="M542 525H401Q398 594 332 594Q271 594 271 543Q271 522 287 509T359 469Q485 409 519 387Q592 339 592 260Q592 210 566 172T494 117Q544 71 544 7Q544 -81 475 -131Q416 -175 324 -175Q215
-175 154 -117Q102 -66 102 16Q102 18 102 22Q102 24 102 26H243Q250 -49 323 -49Q389 -49 389 7Q389 35 366 52T252 110Q127 165 96 199Q54 245 54 306Q54 413 157 448Q117 491 117 546Q117 625 185 674Q245 716 331 716Q431 716 489 657Q540 605 542 525ZM412
187Q453 198 453 238Q453 256 442 267T393 297Q383 302 363 312Q271 361 235 372Q193 365 193 322Q193 300 216 284T340 219L352 213Q369 205 372 203Q395 192 412 187Z" />
<glyph unicode="&#xa8;" glyph-name="dieresis" horiz-adv-x="537" d="M143 735Q175 735 198 713T221 657Q221 625 198 602T143 579Q110 579 88 602T65 657Q65 690 87 712T143 735ZM335 735Q368 735 391 713T414 657Q414 625 391 602T335 579Q303 579 281 602T258
657Q258 690 280 712T335 735Z" />
<glyph unicode="&#xa9;" glyph-name="copyright" horiz-adv-x="784" d="M392 683Q485 683 567 636Q645 590 691 511Q738 429 738 336Q738 244 691 162Q646 84 567 38Q486 -9 392 -9Q298 -9 218 38Q138 84 93 162Q46 243 46 336Q46 430 93 511Q139 590 218 636Q299
683 392 683ZM392 614Q277 614 197 533Q115 451 115 336Q115 222 197 141Q278 59 392 59Q507 59 588 141Q669 221 669 336Q669 452 588 533Q508 614 392 614ZM480 128Q454 120 410 120Q312 120 261 180Q210 237 210 337Q210 437 258 493Q309 553 405 553Q473 553
551 515L515 433Q463 460 412 460Q378 460 356 438Q324 405 324 336Q324 252 365 224Q385 213 412 213Q437 213 463 218Q499 225 529 241V190L480 128Z" />
<glyph unicode="&#xaa;" glyph-name="ordfeminine" horiz-adv-x="429" d="M366 429H261Q258 441 256 453Q218 422 163 422Q113 422 85 445T56 511Q56 564 106 586Q118 591 152 597Q168 600 180 602L255 617Q255 642 246 651T213 660Q171 660 165 624H69Q73 724
213 724Q287 724 323 698Q354 676 354 623Q354 615 353 582V535Q353 522 353 510Q353 459 366 429ZM255 560L210 550Q180 543 170 536T159 513Q159 483 196 483Q251 483 254 541L255 560ZM385 301H44V365H385V301Z" />
<glyph unicode="&#xab;" glyph-name="guillemotleft" horiz-adv-x="582" d="M232 475L295 423L192 267L295 110L232 58H174L37 260V273L174 475H232ZM483 475L546 423L443 267L546 110L483 58H425L288 260V273L425 475H483Z" />
<glyph unicode="&#xac;" glyph-name="logicalnot" horiz-adv-x="537" d="M320 0V154H36V316H501V0H320Z" />
<glyph unicode="&#xad;" glyph-name="uni00AD" horiz-adv-x="272" d="M272 339V190H0V339H272Z" />
<glyph unicode="&#xae;" glyph-name="registered" horiz-adv-x="784" d="M392 683Q485 683 567 636Q645 590 691 511Q738 429 738 336Q738 244 691 162Q646 84 567 38Q486 -9 392 -9Q298 -9 218 38Q138 84 93 162Q46 243 46 336Q46 430 93 511Q139 590 218 636Q299
683 392 683ZM392 614Q277 614 197 533Q115 451 115 336Q115 222 197 141Q278 59 392 59Q507 59 588 141Q669 221 669 336Q669 452 588 533Q508 614 392 614ZM240 539H410Q470 539 511 499T552 401Q552 331 488 299L556 170L512 133H466L391 280H349V133H240V539ZM394
463H349V355H393Q421 355 438 373Q449 386 449 404Q449 431 437 447Q423 463 394 463Z" />
<glyph unicode="&#xaf;" glyph-name="overscore" horiz-adv-x="537" d="M433 829V746H104V829H433Z" />
<glyph unicode="&#xb0;" glyph-name="degree" horiz-adv-x="408" d="M41 520Q41 587 88 635Q137 683 204 683Q272 683 320 635Q366 587 366 520Q366 452 320 405Q272 358 204 358Q137 358 88 405Q41 452 41 520ZM137 520Q137 489 156 466Q177 443 204 443Q231
443 251 466Q272 490 272 520Q272 551 251 575Q232 598 204 598Q176 598 156 575Q137 552 137 520Z" />
<glyph unicode="&#xb1;" glyph-name="plusminus" horiz-adv-x="644" d="M61 319V437H264V639H381V437H584V319H381V145H264V319H61ZM61 0V117H584V0H61Z" />
<glyph unicode="&#xb2;" glyph-name="twosuperior" horiz-adv-x="437" d="M402 379V286H30Q30 290 30 294Q30 363 80 410Q113 441 219 502Q253 522 265 536T277 569Q277 616 219 616Q155 616 152 533H40Q40 537 40 543Q40 623 88 667T223 712Q306 712 354 670Q396
634 396 579Q396 517 340 475Q322 461 257 426Q192 391 175 376Q223 379 259 379H402Z" />
<glyph unicode="&#xb3;" glyph-name="threesuperior" horiz-adv-x="436" d="M39 563Q41 634 87 673T217 712Q301 712 348 674Q389 642 389 591Q389 536 336 512Q405 488 405 419Q405 356 354 318T217 280Q118 280 68 328Q27 369 27 429Q27 433 28 442H141V440Q141
437 141 436Q141 371 213 371Q283 371 283 420Q283 470 207 470Q195 470 176 469V545Q187 543 197 543Q277 543 277 583Q277 624 217 624Q153 624 152 563H39Z" />
<glyph unicode="&#xb4;" glyph-name="acute" horiz-adv-x="537" d="M444 735L287 591H179L267 735H444Z" />
<glyph unicode="&#xb5;" glyph-name="mu" horiz-adv-x="537" d="M27 -184V515H184V252Q184 192 197 167Q223 121 270 121Q354 121 354 255V515H511V0H354V64Q327 -10 267 -10Q215 -10 184 51V-184H27Z" />
<glyph unicode="&#xb6;" glyph-name="paragraph" horiz-adv-x="644" d="M257 -175V346Q247 346 243 346Q152 346 99 403Q52 453 52 529Q52 641 141 688Q193 716 298 716H571V644H522V-175H430V644H348V-175H257Z" />
<glyph unicode="&#xb7;" glyph-name="middot" horiz-adv-x="314" d="M249 439V256H64V439H249Z" />
<glyph unicode="&#xb8;" glyph-name="cedilla" horiz-adv-x="537" d="M302 0L263 -64Q289 -59 304 -59Q344 -59 368 -79T393 -133Q393 -174 359 -199T269 -225Q210 -225 146 -200L166 -156Q218 -174 252 -174Q299 -174 299 -138Q299 -102 255 -102Q240 -102 217
-110L194 -88L251 0H302Z" />
<glyph unicode="&#xb9;" glyph-name="onesuperior" horiz-adv-x="437" d="M317 705V286H192V539H134H84V620Q151 622 184 644Q211 662 218 705H317Z" />
<glyph unicode="&#xba;" glyph-name="ordmasculine" horiz-adv-x="429" d="M385 301H44V365H385V301ZM215 422Q139 422 95 469Q56 511 56 573Q56 640 100 682T214 724Q285 724 329 683T373 574Q373 506 329 464T215 422ZM214 651Q160 651 160 573Q160 495 215
495Q269 495 269 573Q269 651 214 651Z" />
<glyph unicode="&#xbb;" glyph-name="guillemotright" horiz-adv-x="579" d="M100 475H158L295 273V260L158 58H100L37 110L140 267L37 423L100 475ZM347 475H406L542 273V260L406 58H347L285 110L387 267L284 423L347 475Z" />
<glyph unicode="&#xbc;" glyph-name="onequarter" horiz-adv-x="840" d="M267 673V313L207 263H147V540L71 485L16 554L170 673H267ZM673 673L277 0H158L554 673H673ZM775 406V146H823V68H775V40L720 0H654V68H464V130L664 406H775ZM654 273L561 146H654V273Z" />
<glyph unicode="&#xbd;" glyph-name="onehalf" horiz-adv-x="874" d="M267 673V313L207 263H147V540L71 485L16 554L170 673H267ZM675 673L278 0H159L555 673H675ZM551 366Q623 416 702 416Q759 416 797 383T835 299Q835 244 776 189Q770 184 747 163Q724 143
701 123L676 101H851V58L801 0H534L535 92L591 139Q619 163 653 192Q667 203 672 208Q723 257 723 286Q723 291 722 296Q721 301 715 309Q713 311 712 313Q697 327 674 327Q655 327 615 302Q610 299 607 297L551 366Z" />
<glyph unicode="&#xbe;" glyph-name="threequarters" horiz-adv-x="865" d="M39 670Q91 686 125 686Q193 686 236 655T282 571Q280 544 270 526Q249 492 198 480Q240 475 270 448Q301 420 301 384Q301 331 255 297T138 262Q81 262 52 271L16 311V354Q69 337 95
337Q147 337 168 357Q181 369 181 389Q181 414 152 430T76 446Q71 446 69 446V519H120Q166 519 166 557Q166 578 147 590T97 603Q82 603 39 592V670ZM697 673L301 0H181L578 673H697ZM801 406V146H849V68H801V40L746 0H680V68H490V130L689 406H801ZM680 273L588
146H680V273Z" />
<glyph unicode="&#xbf;" glyph-name="questiondown" horiz-adv-x="599" d="M383 280Q383 270 383 264Q383 193 361 152Q344 119 284 80Q246 55 233 38T219 -5Q219 -33 239 -51T291 -70Q377 -70 377 34V36H553Q548 -90 469 -157Q399 -215 287 -215Q168 -215 97
-148Q36 -90 36 -3Q36 71 84 116Q112 141 176 181Q222 209 225 280H383ZM298 525Q331 525 353 503T376 447Q376 415 354 392T298 369Q266 369 243 392T220 447Q220 480 243 502T298 525Z" />
<glyph unicode="&#xc0;" glyph-name="Agrave" horiz-adv-x="718" d="M454 716L722 0H528L482 131H234L188 0H-4L264 716H454ZM439 265L405 362Q375 450 359 523Q339 445 310 360L277 265H439ZM147 918H340L441 780H319L147 918Z" />
<glyph unicode="&#xc1;" glyph-name="Aacute" horiz-adv-x="718" d="M454 716L722 0H528L482 131H234L188 0H-4L264 716H454ZM439 265L405 362Q375 450 359 523Q339 445 310 360L277 265H439ZM567 918L395 780H273L375 918H567Z" />
<glyph unicode="&#xc2;" glyph-name="Acircumflex" horiz-adv-x="718" d="M454 716L722 0H528L482 131H234L188 0H-4L264 716H454ZM439 265L405 362Q375 450 359 523Q339 445 310 360L277 265H439ZM552 780H422L357 854L292 780H166L285 918H434L552 780Z" />
<glyph unicode="&#xc3;" glyph-name="Atilde" horiz-adv-x="718" d="M454 716L722 0H528L482 131H234L188 0H-4L264 716H454ZM439 265L405 362Q375 450 359 523Q339 445 310 360L277 265H439ZM556 916Q542 849 524 825Q493 784 448 784Q408 784 345 808Q302 825
287 825Q255 825 246 782H169Q185 913 282 913Q313 913 400 880Q421 872 436 872Q471 872 478 916H556Z" />
<glyph unicode="&#xc4;" glyph-name="Adieresis" horiz-adv-x="718" d="M454 716L722 0H528L482 131H234L188 0H-4L264 716H454ZM439 265L405 362Q375 450 359 523Q339 445 310 360L277 265H439ZM252 929Q285 929 307 907T330 851Q330 819 307 796T252 773Q220
773 197 796T174 851Q174 884 196 906T252 929ZM466 929Q499 929 521 907T544 851Q544 819 522 796T466 773Q434 773 411 796T388 851Q388 884 411 906T466 929Z" />
<glyph unicode="&#xc5;" glyph-name="Aring" horiz-adv-x="718" d="M454 716L722 0H528L482 131H234L188 0H-4L264 716H454ZM439 265L405 362Q375 450 359 523Q339 445 310 360L277 265H439ZM359 976Q416 976 456 945T496 868Q496 823 456 792T359 760Q302 760
262 791T222 868Q222 913 262 944T359 976ZM359 921Q335 921 318 906T301 868Q301 846 318 831T359 815Q383 815 400 830T417 868Q417 890 400 905T359 921Z" />
<glyph unicode="&#xc6;" glyph-name="AE" horiz-adv-x="1020" d="M971 716V562H637V443H949V296H637V154H980V0H460V127H240L183 0H-17L319 716H971ZM460 261V568H429L296 261H460Z" />
<glyph unicode="&#xc7;" glyph-name="Ccedilla" horiz-adv-x="746" d="M386 -18L358 -63Q385 -57 400 -57Q439 -57 464 -78T489 -132Q489 -172 454 -198T365 -224Q306 -224 242 -199L262 -154Q314 -173 347 -173Q395 -173 395 -137Q395 -100 351 -100Q336 -100
312 -108L290 -87L339 -15Q196 6 118 104Q35 207 35 359Q35 516 130 623Q229 734 397 734Q537 734 630 647Q710 572 717 463H535Q524 512 501 537Q462 580 394 580Q310 580 264 513Q225 454 225 358Q225 247 275 188Q319 136 392 136Q467 136 506 191Q527 221 535
279H722Q712 131 608 50Q520 -18 389 -18H386Z" />
<glyph unicode="&#xc8;" glyph-name="Egrave" horiz-adv-x="688" d="M639 716V562H253V443H606V296H253V154H648V0H66V716H639ZM154 918H346L448 780H325L154 918Z" />
<glyph unicode="&#xc9;" glyph-name="Eacute" horiz-adv-x="688" d="M639 716V562H253V443H606V296H253V154H648V0H66V716H639ZM548 918L377 780H254L356 918H548Z" />
<glyph unicode="&#xca;" glyph-name="Ecircumflex" horiz-adv-x="688" d="M639 716V562H253V443H606V296H253V154H648V0H66V716H639ZM546 780H416L351 854L286 780H160L279 918H428L546 780Z" />
<glyph unicode="&#xcb;" glyph-name="Edieresis" horiz-adv-x="688" d="M639 716V562H253V443H606V296H253V154H648V0H66V716H639ZM243 929Q275 929 298 907T321 851Q321 819 298 796T243 773Q210 773 188 796T165 851Q165 884 187 906T243 929ZM457 929Q490 929
512 907T535 851Q535 819 513 796T457 773Q425 773 402 796T379 851Q379 884 402 906T457 929Z" />
<glyph unicode="&#xcc;" glyph-name="Igrave" horiz-adv-x="318" d="M252 716V0H65V716H252ZM-31 918H158L245 780H126L-31 918Z" />
<glyph unicode="&#xcd;" glyph-name="Iacute" horiz-adv-x="318" d="M253 716V0H66V716H253ZM349 918L192 780H73L160 918H349Z" />
<glyph unicode="&#xce;" glyph-name="Icircumflex" horiz-adv-x="318" d="M252 716V0H65V716H252ZM337 780H211L157 854L102 780H-20L85 918H234L337 780Z" />
<glyph unicode="&#xcf;" glyph-name="Idieresis" horiz-adv-x="318" d="M253 716V0H66V716H253ZM66 929Q98 929 121 907T144 851Q144 819 121 796T66 773Q33 773 11 796T-12 851Q-12 884 10 906T66 929ZM256 929Q289 929 311 907T334 851Q334 819 311 796T256
773Q224 773 201 796T178 851Q178 884 200 906T256 929Z" />
<glyph unicode="&#xd0;" glyph-name="Eth" horiz-adv-x="760" d="M66 716H371Q528 716 617 636Q726 538 726 363Q726 182 624 83Q538 0 371 0H66V319H5V426H66V716ZM253 562V426H410V319H253V154H356Q444 154 485 199Q536 254 536 357Q536 474 467 527Q420 562
342 562H253Z" />
<glyph unicode="&#xd1;" glyph-name="Ntilde" horiz-adv-x="751" d="M687 716V0H505L312 325L271 398Q260 416 241 459Q248 380 248 277V0H66V716H255L433 413Q485 323 513 263Q505 368 505 448V716H687ZM577 916Q564 849 545 825Q514 784 469 784Q429 784 366
808Q323 825 308 825Q277 825 267 782H190Q206 913 303 913Q335 913 421 880Q442 872 457 872Q492 872 499 916H577Z" />
<glyph unicode="&#xd2;" glyph-name="Ograve" horiz-adv-x="777" d="M391 734Q558 734 657 616Q742 513 742 358Q742 179 632 74Q536 -18 391 -18Q221 -18 121 100Q35 202 35 358Q35 537 141 638Q243 734 391 734ZM390 580Q309 580 264 512Q225 454 225 359Q225
248 275 188Q319 136 391 136Q467 136 510 195T553 362Q553 471 503 529Q460 580 390 580ZM195 918H387L489 780H366L195 918Z" />
<glyph unicode="&#xd3;" glyph-name="Oacute" horiz-adv-x="777" d="M391 734Q558 734 657 616Q742 513 742 358Q742 179 632 74Q536 -18 391 -18Q221 -18 121 100Q35 202 35 358Q35 537 141 638Q243 734 391 734ZM390 580Q309 580 264 512Q225 454 225 359Q225
248 275 188Q319 136 391 136Q467 136 510 195T553 362Q553 471 503 529Q460 580 390 580ZM586 918L414 780H292L394 918H586Z" />
<glyph unicode="&#xd4;" glyph-name="Ocircumflex" horiz-adv-x="777" d="M391 734Q558 734 657 616Q742 513 742 358Q742 179 632 74Q536 -18 391 -18Q221 -18 121 100Q35 202 35 358Q35 537 141 638Q243 734 391 734ZM390 580Q309 580 264 512Q225 454 225 359Q225
248 275 188Q319 136 391 136Q467 136 510 195T553 362Q553 471 503 529Q460 580 390 580ZM582 780H452L387 854L322 780H196L315 918H464L582 780Z" />
<glyph unicode="&#xd5;" glyph-name="Otilde" horiz-adv-x="777" d="M391 734Q558 734 657 616Q742 513 742 358Q742 179 632 74Q536 -18 391 -18Q221 -18 121 100Q35 202 35 358Q35 537 141 638Q243 734 391 734ZM390 580Q309 580 264 512Q225 454 225 359Q225
248 275 188Q319 136 391 136Q467 136 510 195T553 362Q553 471 503 529Q460 580 390 580ZM589 916Q576 849 557 825Q526 784 481 784Q441 784 379 808Q335 825 320 825Q289 825 280 782H202Q219 913 315 913Q347 913 434 880Q454 872 470 872Q505 872 511 916H589Z"
/>
<glyph unicode="&#xd6;" glyph-name="Odieresis" horiz-adv-x="777" d="M391 734Q558 734 657 616Q742 513 742 358Q742 179 632 74Q536 -18 391 -18Q221 -18 121 100Q35 202 35 358Q35 537 141 638Q243 734 391 734ZM390 580Q309 580 264 512Q225 454 225 359Q225
248 275 188Q319 136 391 136Q467 136 510 195T553 362Q553 471 503 529Q460 580 390 580ZM284 929Q316 929 339 907T362 851Q362 819 339 796T284 773Q251 773 229 796T206 851Q206 884 228 906T284 929ZM498 929Q530 929 553 907T576 851Q576 819 553 796T498
773Q465 773 443 796T420 851Q420 884 442 906T498 929Z" />
<glyph unicode="&#xd7;" glyph-name="multiply" horiz-adv-x="451" d="M340 431L418 354L303 238L420 122L342 43L225 160L108 43L30 122L146 238L32 354L110 431L225 317L340 431Z" />
<glyph unicode="&#xd8;" glyph-name="Oslash" horiz-adv-x="777" d="M671 598Q743 501 743 356Q743 179 632 74Q537 -18 393 -18Q263 -18 174 51L92 -39L24 21L110 115Q36 216 36 358Q36 537 147 642Q243 734 390 734Q517 734 608 663L688 751L754 691L671 598ZM538
462L292 171Q329 136 395 136Q470 136 511 198T553 372Q553 424 538 462ZM242 251L488 544Q448 580 390 580Q308 580 264 512Q225 453 225 356Q225 301 242 251Z" />
<glyph unicode="&#xd9;" glyph-name="Ugrave" horiz-adv-x="733" d="M678 716V290Q678 147 619 76Q541 -18 367 -18Q182 -18 104 88Q55 155 55 292V716H242V278Q242 203 272 170T371 136Q434 136 463 169T492 278V716H678ZM169 918H361L463 780H340L169 918Z" />
<glyph unicode="&#xda;" glyph-name="Uacute" horiz-adv-x="733" d="M678 716V290Q678 147 619 76Q541 -18 367 -18Q182 -18 104 88Q55 155 55 292V716H242V278Q242 203 272 170T371 136Q434 136 463 169T492 278V716H678ZM563 918L392 780H269L371 918H563Z" />
<glyph unicode="&#xdb;" glyph-name="Ucircumflex" horiz-adv-x="733" d="M678 716V290Q678 147 619 76Q541 -18 367 -18Q182 -18 104 88Q55 155 55 292V716H242V278Q242 203 272 170T371 136Q434 136 463 169T492 278V716H678ZM559 780H429L364 854L299 780H173L292
918H441L559 780Z" />
<glyph unicode="&#xdc;" glyph-name="Udieresis" horiz-adv-x="733" d="M678 716V290Q678 147 619 76Q541 -18 367 -18Q182 -18 104 88Q55 155 55 292V716H242V278Q242 203 272 170T371 136Q434 136 463 169T492 278V716H678ZM261 929Q294 929 316 907T339 851Q339
819 316 796T261 773Q229 773 206 796T183 851Q183 884 205 906T261 929ZM475 929Q508 929 530 907T553 851Q553 819 531 796T475 773Q443 773 420 796T397 851Q397 884 420 906T475 929Z" />
<glyph unicode="&#xdd;" glyph-name="Yacute" horiz-adv-x="665" d="M690 716L426 269V0H239V269L-24 716H188L271 564Q305 502 334 426Q369 515 402 575L481 716H690ZM530 918L359 780H236L338 918H530Z" />
<glyph unicode="&#xde;" glyph-name="Thorn" horiz-adv-x="695" d="M65 716H253V617H361Q503 617 566 575Q664 509 664 376Q664 266 591 199Q526 141 402 141H252V0H65V716ZM252 465V288H375Q482 288 482 376Q482 465 368 465H252Z" />
<glyph unicode="&#xdf;" glyph-name="germandbls" horiz-adv-x="622" d="M280 129Q303 125 319 125Q366 125 394 154T422 233Q422 340 296 340Q294 340 284 340H280V441Q293 440 300 440Q393 440 393 519Q393 552 371 572T311 593Q262 593 242 559Q229 537 229
484V0H59V451Q59 570 97 626Q163 726 317 726Q432 726 498 666Q556 615 556 535Q556 437 468 396Q527 382 561 335T595 219Q595 117 524 48Q464 -10 364 -10Q325 -10 280 0V129Z" />
<glyph unicode="&#xe0;" glyph-name="agrave" horiz-adv-x="587" d="M122 735H300L387 591H280L122 735ZM559 0H386Q378 25 377 49Q329 -14 207 -14Q116 -14 67 34Q24 76 24 145Q24 240 108 279Q144 295 256 316L374 338V369Q372 426 295 426Q253 426 234 412T208
360H47Q56 533 297 533Q425 533 489 487Q519 464 530 436T541 349Q541 339 540 287V276L539 190Q539 155 539 143Q539 131 538 105Q538 91 538 83Q538 27 559 0ZM376 237L298 220Q237 206 217 192T197 150Q197 89 266 89Q324 89 356 130Q374 152 375 200L376 237Z"
/>
<glyph unicode="&#xe1;" glyph-name="aacute" horiz-adv-x="587" d="M488 735L330 591H222L310 735H488ZM559 0H386Q378 25 377 49Q329 -14 207 -14Q116 -14 67 34Q24 76 24 145Q24 240 108 279Q144 295 256 316L374 338V369Q372 426 295 426Q253 426 234 412T208
360H47Q56 533 297 533Q425 533 489 487Q519 464 530 436T541 349Q541 339 540 287V276L539 190Q539 155 539 143Q539 131 538 105Q538 91 538 83Q538 27 559 0ZM376 237L298 220Q237 206 217 192T197 150Q197 89 266 89Q324 89 356 130Q374 152 375 200L376 237Z"
/>
<glyph unicode="&#xe2;" glyph-name="acircumflex" horiz-adv-x="587" d="M494 591H365L303 672L241 591H116L231 735H380L494 591ZM559 0H386Q378 25 377 49Q329 -14 207 -14Q116 -14 67 34Q24 76 24 145Q24 240 108 279Q144 295 256 316L374 338V369Q372 426
295 426Q253 426 234 412T208 360H47Q56 533 297 533Q425 533 489 487Q519 464 530 436T541 349Q541 339 540 287V276L539 190Q539 155 539 143Q539 131 538 105Q538 91 538 83Q538 27 559 0ZM376 237L298 220Q237 206 217 192T197 150Q197 89 266 89Q324 89 356
130Q374 152 375 200L376 237Z" />
<glyph unicode="&#xe3;" glyph-name="atilde" horiz-adv-x="587" d="M480 729Q468 658 445 631T375 603Q337 603 288 623Q251 639 236 639Q209 639 201 598H128Q139 660 153 683Q182 728 232 728Q265 728 338 695Q356 688 371 688Q399 688 406 729H480ZM559 0H386Q378
25 377 49Q329 -14 207 -14Q116 -14 67 34Q24 76 24 145Q24 240 108 279Q144 295 256 316L374 338V369Q372 426 295 426Q253 426 234 412T208 360H47Q56 533 297 533Q425 533 489 487Q519 464 530 436T541 349Q541 339 540 287V276L539 190Q539 155 539 143Q539
131 538 105Q538 91 538 83Q538 27 559 0ZM376 237L298 220Q237 206 217 192T197 150Q197 89 266 89Q324 89 356 130Q374 152 375 200L376 237Z" />
<glyph unicode="&#xe4;" glyph-name="adieresis" horiz-adv-x="587" d="M192 748Q224 748 247 726T270 670Q270 638 247 615T192 592Q159 592 137 615T114 670Q114 703 136 725T192 748ZM406 748Q438 748 461 726T484 670Q484 638 461 615T406 592Q373 592 351
615T328 670Q328 703 350 725T406 748ZM559 0H386Q378 25 377 49Q329 -14 207 -14Q116 -14 67 34Q24 76 24 145Q24 240 108 279Q144 295 256 316L374 338V369Q372 426 295 426Q253 426 234 412T208 360H47Q56 533 297 533Q425 533 489 487Q519 464 530 436T541
349Q541 339 540 287V276L539 190Q539 155 539 143Q539 131 538 105Q538 91 538 83Q538 27 559 0ZM376 237L298 220Q237 206 217 192T197 150Q197 89 266 89Q324 89 356 130Q374 152 375 200L376 237Z" />
<glyph unicode="&#xe5;" glyph-name="aring" horiz-adv-x="587" d="M306 783Q363 783 403 752T443 675Q443 630 403 599T306 567Q249 567 209 598T169 675Q169 720 209 751T306 783ZM306 728Q282 728 265 713T248 675Q248 653 265 638T306 622Q330 622 347 637T364
675Q364 697 347 712T306 728ZM559 0H386Q378 25 377 49Q329 -14 207 -14Q116 -14 67 34Q24 76 24 145Q24 240 108 279Q144 295 256 316L374 338V369Q372 426 295 426Q253 426 234 412T208 360H47Q56 533 297 533Q425 533 489 487Q519 464 530 436T541 349Q541
339 540 287V276L539 190Q539 155 539 143Q539 131 538 105Q538 91 538 83Q538 27 559 0ZM376 237L298 220Q237 206 217 192T197 150Q197 89 266 89Q324 89 356 130Q374 152 375 200L376 237Z" />
<glyph unicode="&#xe6;" glyph-name="ae" horiz-adv-x="933" d="M897 161Q874 75 799 27Q733 -14 645 -14Q512 -14 449 64Q368 -14 221 -14Q24 -14 24 144Q24 206 60 241T184 297L383 345V368Q382 426 299 426Q219 426 210 358H46Q54 533 297 533Q425 533 477
471Q538 533 638 533Q768 533 842 443Q906 365 906 242Q906 233 906 221H531Q534 100 636 100Q706 100 737 161H897ZM739 312Q730 418 636 418Q542 418 531 312H739ZM383 254L277 223Q197 200 197 151Q197 87 273 87Q325 87 354 116T383 196V254Z" />
<glyph unicode="&#xe7;" glyph-name="ccedilla" horiz-adv-x="588" d="M563 204Q554 108 482 46Q419 -8 310 -13L279 -63Q304 -58 321 -58Q360 -58 385 -78T411 -131Q411 -173 377 -199T287 -225Q227 -225 163 -200L183 -156Q233 -174 266 -174Q318 -174 318 -137Q318
-100 271 -100Q256 -100 235 -109L211 -88L259 -13Q187 -1 143 27Q29 103 29 257Q29 389 117 466Q193 533 308 533Q422 533 494 469Q556 414 560 331H395Q385 409 308 409Q202 409 202 257Q202 113 308 113Q388 113 399 204H563Z" />
<glyph unicode="&#xe8;" glyph-name="egrave" horiz-adv-x="610" d="M572 159Q560 113 526 74Q449 -14 313 -14Q190 -14 114 54Q29 130 29 255Q29 386 117 465Q193 533 306 533Q443 533 517 443Q582 364 582 236Q582 227 582 220H196Q198 164 229 133T313 101Q378
101 412 159H572ZM415 317Q402 418 308 418Q213 418 198 317H415ZM133 735H311L398 591H291L133 735Z" />
<glyph unicode="&#xe9;" glyph-name="eacute" horiz-adv-x="610" d="M572 159Q560 113 526 74Q449 -14 313 -14Q190 -14 114 54Q29 130 29 255Q29 386 117 465Q193 533 306 533Q443 533 517 443Q582 364 582 236Q582 227 582 220H196Q198 164 229 133T313 101Q378
101 412 159H572ZM415 317Q402 418 308 418Q213 418 198 317H415ZM499 735L341 591H233L321 735H499Z" />
<glyph unicode="&#xea;" glyph-name="ecircumflex" horiz-adv-x="610" d="M572 159Q560 113 526 74Q449 -14 313 -14Q190 -14 114 54Q29 130 29 255Q29 386 117 465Q193 533 306 533Q443 533 517 443Q582 364 582 236Q582 227 582 220H196Q198 164 229 133T313
101Q378 101 412 159H572ZM415 317Q402 418 308 418Q213 418 198 317H415ZM509 591H379L318 672L256 591H130L246 735H395L509 591Z" />
<glyph unicode="&#xeb;" glyph-name="edieresis" horiz-adv-x="610" d="M572 159Q560 113 526 74Q449 -14 313 -14Q190 -14 114 54Q29 130 29 255Q29 386 117 465Q193 533 306 533Q443 533 517 443Q582 364 582 236Q582 227 582 220H196Q198 164 229 133T313 101Q378
101 412 159H572ZM415 317Q402 418 308 418Q213 418 198 317H415ZM212 743Q244 743 267 720T290 665Q290 632 267 610T212 587Q179 587 157 609T134 665Q134 697 156 720T212 743ZM426 743Q459 743 481 720T504 665Q504 632 482 610T426 587Q394 587 371 609T348
665Q348 697 371 720T426 743Z" />
<glyph unicode="&#xec;" glyph-name="igrave" horiz-adv-x="288" d="M228 519V0H57V519H228ZM-29 735H145L226 591H122L-29 735Z" />
<glyph unicode="&#xed;" glyph-name="iacute" horiz-adv-x="287" d="M229 519V0H59V519H229ZM316 735L165 591H61L141 735H316Z" />
<glyph unicode="&#xee;" glyph-name="icircumflex" horiz-adv-x="287" d="M229 519V0H59V519H229ZM322 591H196L142 672L87 591H-35L70 735H219L322 591Z" />
<glyph unicode="&#xef;" glyph-name="idieresis" horiz-adv-x="287" d="M229 519V0H59V519H229ZM53 743Q85 743 108 720T131 665Q131 632 108 610T53 587Q20 587 -2 609T-25 665Q-25 697 -3 720T53 743ZM241 743Q274 743 296 720T319 665Q319 632 297 610T241
587Q209 587 186 609T163 665Q163 697 186 720T241 743Z" />
<glyph unicode="&#xf0;" glyph-name="eth" horiz-adv-x="607" d="M186 622L264 656L223 709L312 761L367 699L449 732L487 679L409 647Q442 603 496 513Q542 436 560 382T578 266Q578 130 494 53Q420 -15 306 -15Q173 -15 96 70Q29 144 29 259Q29 379 104 458Q168
525 258 525Q308 525 353 493Q331 551 299 601L217 567L186 622ZM303 409Q255 409 229 370T202 260Q202 110 304 110Q406 110 406 261Q406 409 303 409Z" />
<glyph unicode="&#xf1;" glyph-name="ntilde" horiz-adv-x="630" d="M223 519V450Q285 533 393 533Q497 533 545 464Q576 418 576 322V0H405V294Q405 335 397 355Q381 394 326 394Q266 394 242 348Q229 324 229 277V0H59V519H223ZM486 729Q474 658 451 631T381
603Q343 603 295 623Q257 639 242 639Q215 639 208 598H134Q145 660 159 683Q188 728 239 728Q271 728 345 695Q362 688 377 688Q405 688 413 729H486Z" />
<glyph unicode="&#xf2;" glyph-name="ograve" horiz-adv-x="607" d="M304 -14Q173 -14 96 72Q29 147 29 260Q29 390 115 467Q190 533 303 533Q435 533 512 448Q578 375 578 261Q578 130 492 53Q417 -14 304 -14ZM302 409Q254 409 228 370T202 260Q202 110 304
110Q406 110 406 261Q406 409 302 409ZM121 735H298L386 591H279L121 735Z" />
<glyph unicode="&#xf3;" glyph-name="oacute" horiz-adv-x="607" d="M304 -14Q173 -14 96 72Q29 147 29 260Q29 390 115 467Q190 533 303 533Q435 533 512 448Q578 375 578 261Q578 130 492 53Q417 -14 304 -14ZM302 409Q254 409 228 370T202 260Q202 110 304
110Q406 110 406 261Q406 409 302 409ZM490 735L332 591H224L312 735H490Z" />
<glyph unicode="&#xf4;" glyph-name="ocircumflex" horiz-adv-x="607" d="M304 -14Q173 -14 96 72Q29 147 29 260Q29 390 115 467Q190 533 303 533Q435 533 512 448Q578 375 578 261Q578 130 492 53Q417 -14 304 -14ZM302 409Q254 409 228 370T202 260Q202 110
304 110Q406 110 406 261Q406 409 302 409ZM496 591H367L305 672L244 591H118L234 735H382L496 591Z" />
<glyph unicode="&#xf5;" glyph-name="otilde" horiz-adv-x="607" d="M304 -14Q173 -14 96 72Q29 147 29 260Q29 390 115 467Q190 533 303 533Q435 533 512 448Q578 375 578 261Q578 130 492 53Q417 -14 304 -14ZM302 409Q254 409 228 370T202 260Q202 110 304
110Q406 110 406 261Q406 409 302 409ZM490 729Q478 658 455 631T385 603Q347 603 299 623Q261 639 246 639Q219 639 212 598H138Q149 660 163 683Q192 728 243 728Q275 728 349 695Q366 688 381 688Q409 688 417 729H490Z" />
<glyph unicode="&#xf6;" glyph-name="odieresis" horiz-adv-x="607" d="M304 -14Q173 -14 96 72Q29 147 29 260Q29 390 115 467Q190 533 303 533Q435 533 512 448Q578 375 578 261Q578 130 492 53Q417 -14 304 -14ZM302 409Q254 409 228 370T202 260Q202 110 304
110Q406 110 406 261Q406 409 302 409ZM197 743Q230 743 252 720T275 665Q275 632 252 610T197 587Q165 587 142 609T119 665Q119 697 141 720T197 743ZM411 743Q444 743 466 720T489 665Q489 632 467 610T411 587Q379 587 356 609T333 665Q333 697 356 720T411
743Z" />
<glyph unicode="&#xf7;" glyph-name="divide" horiz-adv-x="524" d="M262 510Q294 510 317 487T340 431Q340 399 317 377T262 354Q229 354 207 376T184 431Q184 464 206 487T262 510ZM482 300V191H41V300H482ZM262 139Q294 139 317 116T340 60Q340 28 317 5T262
-18Q229 -18 207 5T184 60Q184 93 206 116T262 139Z" />
<glyph unicode="&#xf8;" glyph-name="oslash" horiz-adv-x="607" d="M95 73Q29 153 29 260Q29 390 115 467Q189 533 302 533Q391 533 457 494L512 556L570 506L516 443Q578 366 578 261Q578 131 492 53Q418 -14 306 -14Q221 -14 155 24L95 -45L37 5L95 73ZM204
193L364 395Q363 396 360 397Q356 400 355 401Q330 416 304 416Q234 416 207 341Q196 310 196 246Q196 212 204 193ZM407 325L246 121Q268 103 306 103Q354 103 383 144Q411 185 411 271Q411 298 407 325Z" />
<glyph unicode="&#xf9;" glyph-name="ugrave" horiz-adv-x="630" d="M132 735H309L397 591H289L132 735ZM572 519V0H401V70Q352 -14 239 -14Q140 -14 90 51Q55 96 55 194V519H225V242Q225 175 238 156Q258 125 306 125Q365 125 390 174Q401 197 401 258V519H572Z" />
<glyph unicode="&#xfa;" glyph-name="uacute" horiz-adv-x="630" d="M494 735L336 591H228L316 735H494ZM572 519V0H401V70Q352 -14 239 -14Q140 -14 90 51Q55 96 55 194V519H225V242Q225 175 238 156Q258 125 306 125Q365 125 390 174Q401 197 401 258V519H572Z" />
<glyph unicode="&#xfb;" glyph-name="ucircumflex" horiz-adv-x="630" d="M504 591H374L313 672L251 591H125L241 735H390L504 591ZM572 519V0H401V70Q352 -14 239 -14Q140 -14 90 51Q55 96 55 194V519H225V242Q225 175 238 156Q258 125 306 125Q365 125 390 174Q401
197 401 258V519H572Z" />
<glyph unicode="&#xfc;" glyph-name="udieresis" horiz-adv-x="630" d="M572 519V0H401V70Q352 -14 239 -14Q140 -14 90 51Q55 96 55 194V519H225V242Q225 175 238 156Q258 125 306 125Q365 125 390 174Q401 197 401 258V519H572ZM211 743Q244 743 266 720T289
665Q289 632 267 610T211 587Q179 587 156 609T133 665Q133 697 156 720T211 743ZM425 743Q458 743 481 720T504 665Q504 632 481 610T425 587Q393 587 371 609T348 665Q348 697 370 720T425 743Z" />
<glyph unicode="&#xfd;" glyph-name="yacute" horiz-adv-x="539" d="M452 735L294 591H187L274 735H452ZM546 519L358 -5Q319 -113 274 -147T126 -181Q71 -181 1 -169L28 -34Q50 -42 85 -42Q140 -42 155 -19Q171 4 171 32Q171 38 168 45L-9 519H172L244 289Q257
246 272 168Q292 257 304 295L372 519H546Z" />
<glyph unicode="&#xfe;" glyph-name="thorn" horiz-adv-x="632" d="M229 716V458Q283 533 376 533Q484 533 547 447Q602 372 602 256Q602 125 533 50Q474 -14 381 -14Q286 -14 229 60V-175H59V716H229ZM327 396Q278 396 251 359T224 256Q224 191 251 155T327 118Q429
118 429 256Q429 396 327 396Z" />
<glyph unicode="&#xff;" glyph-name="ydieresis" horiz-adv-x="539" d="M546 519L358 -5Q319 -113 274 -147T126 -181Q71 -181 1 -169L28 -34Q50 -42 85 -42Q140 -42 155 -19Q171 4 171 32Q171 38 168 45L-9 519H172L244 289Q257 246 272 168Q292 257 304 295L372
519H546ZM167 743Q200 743 222 720T245 665Q245 632 222 610T167 587Q135 587 112 609T89 665Q89 697 111 720T167 743ZM381 743Q414 743 436 720T459 665Q459 632 437 610T381 587Q349 587 326 609T303 665Q303 697 326 720T381 743Z" />
<glyph unicode="&#x2013;" glyph-name="endash" horiz-adv-x="470" d="M433 320V191H37V320H433Z" />
<glyph unicode="&#x2014;" glyph-name="emdash" horiz-adv-x="941" d="M904 320V191H37V320H904Z" />
<glyph unicode="&#x2018;" glyph-name="quoteleft" horiz-adv-x="257" d="M171 716L195 696Q175 667 165 647Q154 624 149 614Q183 606 199 581Q211 564 211 536Q211 512 196 492Q173 460 134 460Q99 460 77 485T54 549Q54 632 129 716H171Z" />
<glyph unicode="&#x2019;" glyph-name="quoteright" horiz-adv-x="257" d="M111 562Q77 570 61 596Q50 614 50 640Q50 664 65 684Q88 716 127 716Q162 716 184 691T207 627Q207 545 132 460H91L66 481Q85 507 96 530L100 537Q108 553 111 562Z" />
<glyph unicode="&#x201a;" glyph-name="quotesinglbase" horiz-adv-x="257" d="M111 -4Q77 4 61 30Q50 48 50 74Q50 98 65 118Q88 150 127 150Q162 150 184 125T207 61Q207 -22 132 -106H91L66 -86Q86 -57 96 -37Q107 -15 111 -4Z" />
<glyph unicode="&#x201c;" glyph-name="quotedblleft" horiz-adv-x="465" d="M171 716L195 696Q175 667 165 647Q154 624 149 614Q163 611 173 605Q189 597 199 581Q211 564 211 536Q211 512 196 492Q173 460 134 460Q99 460 77 485T54 549Q54 632 129 716H171ZM378
716L403 696Q382 667 372 647Q362 624 357 614Q418 601 418 539Q418 506 396 483T341 460Q307 460 285 485T262 549Q262 632 336 716H378Z" />
<glyph unicode="&#x201d;" glyph-name="quotedblright" horiz-adv-x="465" d="M111 562Q77 570 61 596Q50 614 50 640Q50 664 65 684Q88 716 127 716Q162 716 184 691T207 627Q207 545 132 460H91L66 481Q85 507 96 530L100 537Q108 553 111 562ZM319 562Q285
570 270 595Q258 613 258 640Q258 664 272 684Q295 716 335 716Q370 716 392 691T415 627Q415 545 340 460H298L274 481Q292 507 304 530L307 537Q315 553 319 562Z" />
<glyph unicode="&#x201e;" glyph-name="quotedblbase" horiz-adv-x="465" d="M111 -4Q77 4 61 30Q50 48 50 74Q50 98 65 118Q88 150 127 150Q162 150 184 125T207 61Q207 -22 132 -106H91L66 -86Q86 -57 96 -37Q107 -15 111 -4ZM319 -4Q285 4 270 29Q258 47 258
74Q258 98 272 118Q295 150 335 150Q370 150 392 125T415 61Q415 -22 340 -106H298L274 -86Q294 -57 304 -37Q314 -15 319 -4Z" />
<glyph unicode="&#x2022;" glyph-name="bullet" horiz-adv-x="436" d="M219 334Q274 334 312 296T351 202Q351 146 313 108T219 69Q164 69 125 108T86 202Q86 257 125 295T219 334Z" />
<glyph unicode="&#x2039;" glyph-name="guilsinglleft" horiz-adv-x="331" d="M232 475L295 423L192 267L295 110L232 58H174L37 260V273L174 475H232Z" />
<glyph unicode="&#x203a;" glyph-name="guilsinglright" horiz-adv-x="331" d="M100 475H158L295 273V260L158 58H100L37 110L140 267L37 423L100 475Z" />
</font>
</defs>
</svg>
